  0
SECTION
  2
HEADER
  9
$ACADVER
  1
AC1012
  9
$DWGCODEPAGE
  3
dos932
  9
$INSBASE
 10
0.0
 20
0.0
 30
0.0
  9
$EXTMIN
 10
10.74730718199549
 20
29.99748257919853
 30
-0.0015258207003583
  9
$EXTMAX
 10
119.2513736027192
 20
89.00550864870371
 30
0.0000000349246037
  9
$LIMMIN
 10
0.0
 20
0.0
  9
$LIMMAX
 10
148.5
 20
105.0
  9
$ORTHOMODE
 70
     0
  9
$REGENMODE
 70
     1
  9
$FILLMODE
 70
     1
  9
$QTEXTMODE
 70
     0
  9
$MIRRTEXT
 70
     0
  9
$DRAGMODE
 70
     2
  9
$LTSCALE
 40
0.25
  9
$OSMODE
 70
    37
  9
$ATTMODE
 70
     1
  9
$TEXTSIZE
 40
1.5
  9
$TRACEWID
 40
1.0
  9
$TEXTSTYLE
  7
GOTHIC
  9
$CLAYER
  8
0
  9
$CELTYPE
  6
BYLAYER
  9
$CECOLOR
 62
   256
  9
$CELTSCALE
 40
1.0
  9
$DELOBJ
 70
     1
  9
$DISPSILH
 70
     0
  9
$DIMSCALE
 40
1.0
  9
$DIMASZ
 40
1.0
  9
$DIMEXO
 40
0.0
  9
$DIMDLI
 40
1.5
  9
$DIMRND
 40
0.0
  9
$DIMDLE
 40
0.0
  9
$DIMEXE
 40
1.5
  9
$DIMTP
 40
0.0
  9
$DIMTM
 40
0.0
  9
$DIMTXT
 40
1.5
  9
$DIMCEN
 40
0.0
  9
$DIMTSZ
 40
0.0
  9
$DIMTOL
 70
     0
  9
$DIMLIM
 70
     0
  9
$DIMTIH
 70
     0
  9
$DIMTOH
 70
     0
  9
$DIMSE1
 70
     0
  9
$DIMSE2
 70
     0
  9
$DIMTAD
 70
     1
  9
$DIMZIN
 70
     8
  9
$DIMBLK
  1
OPEN30
  9
$DIMASO
 70
     1
  9
$DIMSHO
 70
     1
  9
$DIMPOST
  1

  9
$DIMAPOST
  1

  9
$DIMALT
 70
     0
  9
$DIMALTD
 70
     3
  9
$DIMALTF
 40
0.03937007874016
  9
$DIMLFAC
 40
1.0
  9
$DIMTOFL
 70
     1
  9
$DIMTVP
 40
0.0
  9
$DIMTIX
 70
     0
  9
$DIMSOXD
 70
     0
  9
$DIMSAH
 70
     0
  9
$DIMBLK1
  1

  9
$DIMBLK2
  1

  9
$DIMSTYLE
  2
VESSEL_ENGINEERING_ORIGIN0
  9
$DIMCLRD
 70
   256
  9
$DIMCLRE
 70
   256
  9
$DIMCLRT
 70
   256
  9
$DIMTFAC
 40
1.0
  9
$DIMGAP
 40
0.5
  9
$DIMJUST
 70
     0
  9
$DIMSD1
 70
     0
  9
$DIMSD2
 70
     0
  9
$DIMTOLJ
 70
     1
  9
$DIMTZIN
 70
     0
  9
$DIMALTZ
 70
     0
  9
$DIMALTTZ
 70
     0
  9
$DIMFIT
 70
     3
  9
$DIMUPT
 70
     0
  9
$DIMUNIT
 70
     2
  9
$DIMDEC
 70
     4
  9
$DIMTDEC
 70
     4
  9
$DIMALTU
 70
     2
  9
$DIMALTTD
 70
     2
  9
$DIMTXSTY
  7
STANDARD
  9
$DIMAUNIT
 70
     0
  9
$LUNITS
 70
     2
  9
$LUPREC
 70
     4
  9
$SKETCHINC
 40
1.0
  9
$FILLETRAD
 40
0.0
  9
$AUNITS
 70
     0
  9
$AUPREC
 70
     0
  9
$MENU
  1
.
  9
$ELEVATION
 40
0.0
  9
$PELEVATION
 40
0.0
  9
$THICKNESS
 40
0.0
  9
$LIMCHECK
 70
     0
  9
$BLIPMODE
 70
     1
  9
$CHAMFERA
 40
0.0
  9
$CHAMFERB
 40
0.0
  9
$CHAMFERC
 40
0.0
  9
$CHAMFERD
 40
0.0
  9
$SKPOLY
 70
     0
  9
$TDCREATE
 40
2452943.646856192
  9
$TDUPDATE
 40
2453515.802368865
  9
$TDINDWG
 40
0.3007105440
  9
$TDUSRTIMER
 40
0.3007105440
  9
$USRTIMER
 70
     1
  9
$ANGBASE
 50
0.0
  9
$ANGDIR
 70
     0
  9
$PDMODE
 70
     0
  9
$PDSIZE
 40
0.0
  9
$PLINEWID
 40
0.0
  9
$COORDS
 70
     1
  9
$SPLFRAME
 70
     0
  9
$SPLINETYPE
 70
     6
  9
$SPLINESEGS
 70
     8
  9
$ATTDIA
 70
     0
  9
$ATTREQ
 70
     1
  9
$HANDLING
 70
-16383
  9
$HANDSEED
  5
18E0
  9
$SURFTAB1
 70
     6
  9
$SURFTAB2
 70
     6
  9
$SURFTYPE
 70
     6
  9
$SURFU
 70
     6
  9
$SURFV
 70
     6
  9
$UCSNAME
  2

  9
$UCSORG
 10
0.0
 20
0.0
 30
0.0
  9
$UCSXDIR
 10
1.0
 20
0.0
 30
0.0
  9
$UCSYDIR
 10
0.0
 20
1.0
 30
0.0
  9
$PUCSNAME
  2

  9
$PUCSORG
 10
0.0
 20
0.0
 30
0.0
  9
$PUCSXDIR
 10
1.0
 20
0.0
 30
0.0
  9
$PUCSYDIR
 10
0.0
 20
1.0
 30
0.0
  9
$USERI1
 70
     0
  9
$USERI2
 70
     0
  9
$USERI3
 70
     0
  9
$USERI4
 70
     0
  9
$USERI5
 70
     0
  9
$USERR1
 40
0.0
  9
$USERR2
 40
0.0
  9
$USERR3
 40
0.0
  9
$USERR4
 40
0.0
  9
$USERR5
 40
0.0
  9
$WORLDVIEW
 70
     1
  9
$SHADEDGE
 70
     3
  9
$SHADEDIF
 70
    70
  9
$TILEMODE
 70
     1
  9
$MAXACTVP
 70
    64
  9
$PINSBASE
 10
0.0
 20
0.0
 30
0.0
  9
$PLIMCHECK
 70
     0
  9
$PEXTMIN
 10
1.000000000000000E+20
 20
1.000000000000000E+20
 30
1.000000000000000E+20
  9
$PEXTMAX
 10
-1.000000000000000E+20
 20
-1.000000000000000E+20
 30
-1.000000000000000E+20
  9
$PLIMMIN
 10
-3.17498779296875
 20
-3.174999952316284
  9
$PLIMMAX
 10
293.8145141601562
 20
206.8194916248321
  9
$UNITMODE
 70
     0
  9
$VISRETAIN
 70
     1
  9
$PLINEGEN
 70
     0
  9
$PSLTSCALE
 70
     0
  9
$TREEDEPTH
 70
  3020
  9
$PICKSTYLE
 70
     3
  9
$CMLSTYLE
  2
STANDARD
  9
$CMLJUST
 70
     0
  9
$CMLSCALE
 40
1.0
  9
$SAVEIMAGES
 70
     1
  0
ENDSEC
  0
SECTION
  2
CLASSES
  0
CLASS
  1
ACDBDICTIONARYWDFLT
  2
AcDbDictionaryWithDefault
  3
AutoCAD 2000
 90
    32768
280
     0
281
     0
  0
CLASS
  1
ACDBPLACEHOLDER
  2
AcDbPlaceHolder
  3
AutoCAD 2000
 90
    32768
280
     0
281
     0
  0
CLASS
  1
LAYOUT
  2
AcDbLayout
  3
AutoCAD 2000
 90
    32768
280
     0
281
     0
  0
CLASS
  1
LONG_TRANSACTION
  2
AcDbLongTransaction
  3
AutoCAD 2000
 90
    32768
280
     0
281
     0
  0
CLASS
  1
LWPOLYLINE
  2
AcDbPolyline
  3
AutoCAD 2000
 90
    32768
280
     0
281
     1
  0
CLASS
  1
HATCH
  2
AcDbHatch
  3
AutoCAD 2000
 90
    32768
280
     0
281
     1
  0
CLASS
  1
XRECORD
  2
AcDbXrecord
  3
AutoCAD 2000
 90
    32768
280
     0
281
     0
  0
ENDSEC
  0
SECTION
  2
TABLES
  0
TABLE
  2
VPORT
  5
11DC
330
0
100
AcDbSymbolTable
 70
     2
  0
VPORT
  5
18CB
330
11DC
100
AcDbSymbolTableRecord
100
AcDbViewportTableRecord
  2
*ACTIVE
 70
     0
 10
0.0
 20
0.0
 11
1.0
 21
1.0
 12
64.99934039235736
 22
59.50149561395112
 13
0.0
 23
0.0
 14
1.5
 24
1.5
 15
1.5
 25
1.5
 16
0.0
 26
0.0
 36
1.0
 17
0.0
 27
0.0
 37
0.0
 40
72.21314542788633
 41
1.510025062656641
 42
50.0
 43
0.0
 44
0.0
 50
0.0
 51
0.0
 71
     0
 72
 20000
 73
     1
 74
     3
 75
     0
 76
     0
 77
     0
 78
     0
  0
ENDTAB
  0
TABLE
  2
LTYPE
  5
11D9
330
0
100
AcDbSymbolTable
 70
    12
  0
LTYPE
  5
11E7
330
11D9
100
AcDbSymbolTableRecord
100
AcDbLinetypeTableRecord
  2
BYBLOCK
 70
     0
  3

 72
    65
 73
     0
 40
0.0
  0
LTYPE
  5
11E8
330
11D9
100
AcDbSymbolTableRecord
100
AcDbLinetypeTableRecord
  2
BYLAYER
 70
     0
  3

 72
    65
 73
     0
 40
0.0
  0
LTYPE
  5
11E9
330
11D9
100
AcDbSymbolTableRecord
100
AcDbLinetypeTableRecord
  2
CONTINUOUS
 70
     0
  3
Solid line
 72
    65
 73
     0
 40
0.0
  0
LTYPE
  5
11F8
330
11D9
100
AcDbSymbolTableRecord
100
AcDbLinetypeTableRecord
  2
CENTER2
 70
     0
  3
Center (.5x) ___ _ ___ _ ___ _ ___ _ ___ _ ___
 72
    65
 73
     4
 40
28.57499999999999
 49
19.05
 74
     0
 49
-3.174999999999998
 74
     0
 49
3.174999999999998
 74
     0
 49
-3.174999999999998
 74
     0
  0
LTYPE
  5
11F9
330
11D9
100
AcDbSymbolTableRecord
100
AcDbLinetypeTableRecord
  2
HIDDEN2
 70
     0
  3
Hidden (.5x) _ _ _ _ _ _ _ _ _ _ _ _ _ _ _ _ _
 72
    65
 73
     2
 40
4.762499999999999
 49
3.174999999999998
 74
     0
 49
-1.587499999999999
 74
     0
  0
LTYPE
  5
11FA
330
11D9
100
AcDbSymbolTableRecord
100
AcDbLinetypeTableRecord
  2
DASHED
 70
     0
  3
__ __ __ __ __ __ __ __ __ __ __ __ __ __ __
 72
    65
 73
     2
 40
0.75
 49
0.5
 74
     0
 49
-0.25
 74
     0
  0
LTYPE
  5
11FB
330
11D9
100
AcDbSymbolTableRecord
100
AcDbLinetypeTableRecord
  2
HIDDEN
 70
     0
  3
_ _ _ _ _ _ _ _ _ _ _ _ _ _ _ _ _ _ _ _ _ _ _
 72
    65
 73
     2
 40
0.375
 49
0.25
 74
     0
 49
-0.125
 74
     0
  0
LTYPE
  5
11FC
330
11D9
100
AcDbSymbolTableRecord
100
AcDbLinetypeTableRecord
  2
CENTER
 70
     0
  3
____ _ ____ _ ____ _ ____ _ ____ _ ____ _ ____
 72
    65
 73
     4
 40
2.0
 49
1.25
 74
     0
 49
-0.25
 74
     0
 49
0.25
 74
     0
 49
-0.25
 74
     0
  0
LTYPE
  5
11FD
330
11D9
100
AcDbSymbolTableRecord
100
AcDbLinetypeTableRecord
  2
PHANTOM
 70
     0
  3
_____ _ _ _____ _ _ _____ _ _ _____ _ _ ____
 72
    65
 73
     6
 40
2.5
 49
1.25
 74
     0
 49
-0.25
 74
     0
 49
0.25
 74
     0
 49
-0.25
 74
     0
 49
0.25
 74
     0
 49
-0.25
 74
     0
  0
LTYPE
  5
11FE
330
11D9
100
AcDbSymbolTableRecord
100
AcDbLinetypeTableRecord
  2
DOT
 70
     0
  3
...............................................
 72
    65
 73
     2
 40
0.25
 49
0.0
 74
     0
 49
-0.25
 74
     0
  0
LTYPE
  5
11FF
330
11D9
100
AcDbSymbolTableRecord
100
AcDbLinetypeTableRecord
  2
DASHDOT
 70
     0
  3
__ . __ . __ . __ . __ . __ . __ . __ . __ . __
 72
    65
 73
     4
 40
1.0
 49
0.5
 74
     0
 49
-0.25
 74
     0
 49
0.0
 74
     0
 49
-0.25
 74
     0
  0
LTYPE
  5
1200
330
11D9
100
AcDbSymbolTableRecord
100
AcDbLinetypeTableRecord
  2
BORDER
 70
     0
  3
__ __ . __ __ . __ __ . __ __ . __ __ . __ __
 72
    65
 73
     6
 40
1.75
 49
0.5
 74
     0
 49
-0.25
 74
     0
 49
0.5
 74
     0
 49
-0.25
 74
     0
 49
0.0
 74
     0
 49
-0.25
 74
     0
  0
LTYPE
  5
1201
330
11D9
100
AcDbSymbolTableRecord
100
AcDbLinetypeTableRecord
  2
DIVIDE
 70
     0
  3
__ . . __ . . __ . . __ . . __ . . __ . . __
 72
    65
 73
     6
 40
1.25
 49
0.5
 74
     0
 49
-0.25
 74
     0
 49
0.0
 74
     0
 49
-0.25
 74
     0
 49
0.0
 74
     0
 49
-0.25
 74
     0
  0
LTYPE
  5
1202
330
11D9
100
AcDbSymbolTableRecord
100
AcDbLinetypeTableRecord
  2
PHANTOM2
 70
     0
  3
Phantom (.5x) ___ _ _ ___ _ _ ___ _ _ ___ _ _
 72
    65
 73
     6
 40
31.75
 49
15.875
 74
     0
 49
-3.174999999999998
 74
     0
 49
3.174999999999998
 74
     0
 49
-3.174999999999998
 74
     0
 49
3.174999999999998
 74
     0
 49
-3.174999999999998
 74
     0
  0
ENDTAB
  0
TABLE
  2
LAYER
  5
11D6
330
0
100
AcDbSymbolTable
 70
     9
  0
LAYER
  5
11E4
330
11D6
100
AcDbSymbolTableRecord
100
AcDbLayerTableRecord
  2
0
 70
     0
 62
     7
  6
CONTINUOUS
  0
LAYER
  5
1203
330
11D6
100
AcDbSymbolTableRecord
100
AcDbLayerTableRecord
  2
CENTER
 70
     0
 62
     4
  6
CENTER2
  0
LAYER
  5
1204
330
11D6
100
AcDbSymbolTableRecord
100
AcDbLayerTableRecord
  2
DIMENSION
 70
     0
 62
     3
  6
CONTINUOUS
  0
LAYER
  5
1205
330
11D6
100
AcDbSymbolTableRecord
100
AcDbLayerTableRecord
  2
HIDDEN
 70
     0
 62
     4
  6
HIDDEN2
  0
LAYER
  5
1206
330
11D6
100
AcDbSymbolTableRecord
100
AcDbLayerTableRecord
  2
LINE
 70
     0
 62
     2
  6
CONTINUOUS
  0
LAYER
  5
1207
330
11D6
100
AcDbSymbolTableRecord
100
AcDbLayerTableRecord
  2
TEXT
 70
     0
 62
     3
  6
CONTINUOUS
  0
LAYER
  5
1208
330
11D6
100
AcDbSymbolTableRecord
100
AcDbLayerTableRecord
  2
DEFPOINTS
 70
     0
 62
    -7
  6
CONTINUOUS
  0
LAYER
  5
1209
330
11D6
100
AcDbSymbolTableRecord
100
AcDbLayerTableRecord
  2
UNDER_LINE
 70
     0
 62
     6
  6
CONTINUOUS
  0
LAYER
  5
120A
330
11D6
100
AcDbSymbolTableRecord
100
AcDbLayerTableRecord
  2
HATCHING
 70
     0
 62
     7
  6
CONTINUOUS
  0
ENDTAB
  0
TABLE
  2
STYLE
  5
11D7
330
0
100
AcDbSymbolTable
 70
     6
  0
STYLE
  5
11E5
330
11D7
100
AcDbSymbolTableRecord
100
AcDbTextStyleTableRecord
  2
STANDARD
 70
     0
 40
0.0
 41
1.0
 50
0.0
 71
     0
 42
2.5
  3
txt
  4

  0
STYLE
  5
11F6
330
11D7
100
AcDbSymbolTableRecord
100
AcDbTextStyleTableRecord
  2
GOTHIC
 70
     0
 40
0.0
 41
1.0
 50
0.0
 71
     0
 42
1.5
  3
txt.shx
  4
bigfont.shx
  0
STYLE
  5
120B
330
11D7
100
AcDbSymbolTableRecord
100
AcDbTextStyleTableRecord
  2

 70
     1
 40
0.0
 41
1.0
 50
0.0
 71
     0
 42
2.5
  3
ltypeshp.shx
  4

  0
STYLE
  5
120C
330
11D7
100
AcDbSymbolTableRecord
100
AcDbTextStyleTableRecord
  2
KANJI
 70
     0
 40
0.0
 41
1.0
 50
0.0
 71
     0
 42
2.5
  3
romans.shx
  4
extfont.shx
  0
STYLE
  5
120D
330
11D7
100
AcDbSymbolTableRecord
100
AcDbTextStyleTableRecord
  2
KANJI1
 70
     0
 40
0.0
 41
1.0
 50
0.0
 71
     0
 42
0.2
  3
txt.shx
  4
BIGFONT
  0
STYLE
  5
120E
330
11D7
100
AcDbSymbolTableRecord
100
AcDbTextStyleTableRecord
  2
KANJI2
 70
     4
 40
0.0
 41
1.0
 50
0.0
 71
     0
 42
0.2
  3
txt.shx
  4
BIGFONT
  0
ENDTAB
  0
TABLE
  2
VIEW
  5
11DA
330
0
100
AcDbSymbolTable
 70
     0
  0
ENDTAB
  0
TABLE
  2
UCS
  5
11DB
330
0
100
AcDbSymbolTable
 70
     0
  0
ENDTAB
  0
TABLE
  2
APPID
  5
11DD
330
0
100
AcDbSymbolTable
 70
     4
  0
APPID
  5
11E6
330
11DD
100
AcDbSymbolTableRecord
100
AcDbRegAppTableRecord
  2
ACAD
 70
     0
  0
APPID
  5
120F
330
11DD
100
AcDbSymbolTableRecord
100
AcDbRegAppTableRecord
  2
ACAD_DSTYLE_DIMTEXT_FILL
 70
     0
  0
APPID
  5
1210
330
11DD
100
AcDbSymbolTableRecord
100
AcDbRegAppTableRecord
  2
ACAD_PSEXT
 70
     0
  0
APPID
  5
1211
330
11DD
100
AcDbSymbolTableRecord
100
AcDbRegAppTableRecord
  2
CONTENTBLOCKICON
 70
     0
  0
ENDTAB
  0
TABLE
  2
DIMSTYLE
  5
11DE
330
0
100
AcDbSymbolTable
 70
     9
  0
DIMSTYLE
105
1212
102
{ACAD_REACTORS
330
1878
330
1886
330
1889
330
188F
330
1890
330
1897
330
1898
330
18B9
330
18BD
330
18BE
330
18C6
102
}
330
11DE
100
AcDbSymbolTableRecord
100
AcDbDimStyleTableRecord
  2
ISO-25
 70
     0
  3

  4

  5

  6

  7

 40
1.0
 41
2.5
 42
0.625
 43
3.75
 44
1.25
 45
0.0
 46
0.0
 47
0.0
 48
0.0
140
2.5
141
2.5
142
0.0
143
0.03937007874016
144
1.0
145
0.0
146
1.0
147
0.625
 71
     0
 72
     0
 73
     0
 74
     0
 75
     0
 76
     0
 77
     1
 78
     8
170
     0
171
     3
172
     1
173
     0
174
     0
175
     0
176
     0
177
     0
178
     0
270
     2
271
     4
272
     4
273
     2
274
     3
340
11F6
275
     0
280
     0
281
     0
282
     0
283
     1
284
     8
285
     8
286
     8
287
     5
288
     0
  0
DIMSTYLE
105
1213
102
{ACAD_REACTORS
330
136A
330
13A0
330
13A1
330
13A2
330
13A3
330
13A4
330
13AC
330
13AD
330
13B4
330
13BE
330
13BF
330
13C0
330
13C1
330
13C2
330
13C3
330
13C4
330
13C5
102
}
330
11DE
100
AcDbSymbolTableRecord
100
AcDbDimStyleTableRecord
  2
VESSEL_ENGINEERING_ORIGINA
 70
     0
  3

  4

  5

  6

  7

 40
1.0
 41
1.0
 42
0.0
 43
1.5
 44
1.5
 45
0.0
 46
0.0
 47
0.0
 48
0.0
140
1.5
141
0.0
142
0.0
143
0.03937007874016
144
1.0
145
0.0
146
1.0
147
0.5
 71
     0
 72
     0
 73
     0
 74
     0
 75
     0
 76
     0
 77
     1
 78
     8
170
     0
171
     3
172
     1
173
     0
174
     0
175
     0
176
   256
177
   256
178
   256
270
     2
271
     4
272
     4
273
     2
274
     3
340
11F6
275
     0
280
     0
281
     0
282
     0
283
     1
284
     8
285
     8
286
     8
287
     5
288
     0
  0
DIMSTYLE
105
1214
330
11DE
100
AcDbSymbolTableRecord
100
AcDbDimStyleTableRecord
  2
VESSEL_ENGINEERING_ORIGIN0
 70
     0
  3

  4

  5

  6

  7

 40
1.0
 41
1.0
 42
0.0
 43
1.5
 44
1.5
 45
0.0
 46
0.0
 47
0.0
 48
0.0
140
1.5
141
0.0
142
0.0
143
0.03937007874016
144
1.0
145
0.0
146
1.0
147
0.5
 71
     0
 72
     0
 73
     0
 74
     0
 75
     0
 76
     0
 77
     1
 78
     8
170
     0
171
     3
172
     1
173
     0
174
     0
175
     0
176
   256
177
   256
178
   256
270
     2
271
     4
272
     4
273
     2
274
     3
340
11F6
275
     0
280
     0
281
     0
282
     0
283
     1
284
     8
285
     8
286
     8
287
     5
288
     0
  0
DIMSTYLE
105
1215
330
11DE
100
AcDbSymbolTableRecord
100
AcDbDimStyleTableRecord
  2
VESSEL_ENGINEERING_ORIGIN1
 70
     0
  3

  4

  5

  6

  7

 40
1.0
 41
1.0
 42
0.0
 43
1.5
 44
1.5
 45
0.0
 46
0.0
 47
0.0
 48
0.0
140
1.5
141
0.0
142
0.0
143
0.03937007874016
144
1.0
145
0.0
146
1.0
147
0.5
 71
     0
 72
     0
 73
     0
 74
     1
 75
     0
 76
     0
 77
     1
 78
     8
170
     0
171
     3
172
     1
173
     0
174
     0
175
     0
176
   256
177
   256
178
   256
270
     2
271
     4
272
     4
273
     2
274
     3
340
11F6
275
     0
280
     0
281
     0
282
     0
283
     1
284
     8
285
     8
286
     8
287
     5
288
     0
  0
DIMSTYLE
105
1216
330
11DE
100
AcDbSymbolTableRecord
100
AcDbDimStyleTableRecord
  2
VESSEL_ENGINEERING_ORIGIN2
 70
     0
  3

  4

  5

  6

  7

 40
1.0
 41
1.0
 42
0.0
 43
1.5
 44
1.5
 45
0.0
 46
0.0
 47
0.0
 48
0.0
140
1.5
141
0.0
142
0.0
143
0.03937007874016
144
1.0
145
0.0
146
1.0
147
0.5
 71
     0
 72
     0
 73
     0
 74
     1
 75
     0
 76
     0
 77
     1
 78
     8
170
     0
171
     3
172
     1
173
     0
174
     0
175
     0
176
   256
177
   256
178
   256
270
     2
271
     4
272
     4
273
     2
274
     3
340
11F6
275
     0
280
     0
281
     0
282
     0
283
     1
284
     8
285
     8
286
     8
287
     5
288
     0
  0
DIMSTYLE
105
1217
102
{ACAD_REACTORS
330
13B3
330
13D2
102
}
330
11DE
100
AcDbSymbolTableRecord
100
AcDbDimStyleTableRecord
  2
VESSEL_ENGINEERING_ORIGIN3
 70
     0
  3

  4

  5

  6

  7

 40
1.0
 41
1.0
 42
0.0
 43
1.5
 44
1.5
 45
0.0
 46
0.0
 47
0.0
 48
0.0
140
1.5
141
0.0
142
0.0
143
0.03937007874016
144
1.0
145
0.0
146
1.0
147
0.5
 71
     0
 72
     0
 73
     0
 74
     1
 75
     0
 76
     0
 77
     1
 78
     8
170
     0
171
     3
172
     1
173
     0
174
     0
175
     0
176
   256
177
   256
178
   256
270
     2
271
     4
272
     4
273
     2
274
     3
340
11F6
275
     0
280
     0
281
     0
282
     0
283
     1
284
     8
285
     8
286
     8
287
     5
288
     0
  0
DIMSTYLE
105
1218
330
11DE
100
AcDbSymbolTableRecord
100
AcDbDimStyleTableRecord
  2
VESSEL_ENGINEERING_ORIGIN4
 70
     0
  3

  4

  5

  6

  7

 40
1.0
 41
1.0
 42
0.0
 43
1.5
 44
1.5
 45
0.0
 46
0.0
 47
0.0
 48
0.0
140
1.5
141
0.0
142
0.0
143
0.03937007874016
144
1.0
145
0.0
146
1.0
147
0.5
 71
     0
 72
     0
 73
     0
 74
     0
 75
     0
 76
     0
 77
     1
 78
     8
170
     0
171
     3
172
     1
173
     0
174
     0
175
     0
176
   256
177
   256
178
   256
270
     2
271
     4
272
     4
273
     2
274
     3
340
11F6
275
     0
280
     0
281
     0
282
     0
283
     1
284
     8
285
     8
286
     8
287
     5
288
     0
  0
DIMSTYLE
105
1219
330
11DE
100
AcDbSymbolTableRecord
100
AcDbDimStyleTableRecord
  2
VESSEL_ENGINEERING_ORIGIN5
 70
     0
  3

  4

  5

  6

  7

 40
1.0
 41
1.0
 42
0.0
 43
1.5
 44
1.5
 45
0.0
 46
0.0
 47
0.0
 48
0.0
140
1.5
141
0.0
142
0.0
143
0.03937007874016
144
1.0
145
0.0
146
1.0
147
0.5
 71
     0
 72
     0
 73
     0
 74
     0
 75
     0
 76
     0
 77
     1
 78
     8
170
     0
171
     3
172
     1
173
     0
174
     0
175
     0
176
   256
177
   256
178
   256
270
     2
271
     4
272
     4
273
     2
274
     3
340
11F6
275
     0
280
     0
281
     0
282
     0
283
     1
284
     8
285
     8
286
     8
287
     5
288
     0
  0
DIMSTYLE
105
121A
330
11DE
100
AcDbSymbolTableRecord
100
AcDbDimStyleTableRecord
  2
STANDARD
 70
     0
  3

  4

  5

  6

  7

 40
1.0
 41
0.18
 42
0.0625
 43
0.38
 44
0.18
 45
0.0
 46
0.0
 47
0.0
 48
0.0
140
0.18
141
0.09
142
0.0
143
25.4
144
1.0
145
0.0
146
1.0
147
0.09
 71
     0
 72
     0
 73
     1
 74
     1
 75
     0
 76
     0
 77
     0
 78
     0
170
     0
171
     2
172
     0
173
     0
174
     0
175
     0
176
     0
177
     0
178
     0
270
     2
271
     4
272
     4
273
     2
274
     3
340
11F6
275
     0
280
     0
281
     0
282
     0
283
     1
284
     8
285
     8
286
     8
287
     5
288
     0
  0
ENDTAB
  0
TABLE
  2
BLOCK_RECORD
  5
11D5
330
0
100
AcDbSymbolTable
 70
   178
  0
BLOCK_RECORD
  5
11F2
102
{ACAD_XDICTIONARY
360
18CE
102
}
330
11D5
100
AcDbSymbolTableRecord
100
AcDbBlockTableRecord
  2
*MODEL_SPACE
  0
BLOCK_RECORD
  5
11EE
102
{ACAD_XDICTIONARY
360
18CC
102
}
330
11D5
100
AcDbSymbolTableRecord
100
AcDbBlockTableRecord
  2
*PAPER_SPACE
  0
BLOCK_RECORD
  5
1220
330
11D5
100
AcDbSymbolTableRecord
100
AcDbBlockTableRecord
  2
$MODEL_SPACE
  0
BLOCK_RECORD
  5
1223
330
11D5
100
AcDbSymbolTableRecord
100
AcDbBlockTableRecord
  2
$PAPER_SPACE
  0
BLOCK_RECORD
  5
1226
330
11D5
100
AcDbSymbolTableRecord
100
AcDbBlockTableRecord
  2
_OPEN30
  0
BLOCK_RECORD
  5
122C
330
11D5
100
AcDbSymbolTableRecord
100
AcDbBlockTableRecord
  2
FORMAT
  0
BLOCK_RECORD
  5
1266
330
11D5
100
AcDbSymbolTableRecord
100
AcDbBlockTableRecord
  2
*D4
  0
BLOCK_RECORD
  5
126D
330
11D5
100
AcDbSymbolTableRecord
100
AcDbBlockTableRecord
  2
*U5
  0
BLOCK_RECORD
  5
1273
330
11D5
100
AcDbSymbolTableRecord
100
AcDbBlockTableRecord
  2
*D6
  0
BLOCK_RECORD
  5
127A
330
11D5
100
AcDbSymbolTableRecord
100
AcDbBlockTableRecord
  2
*U7
  0
BLOCK_RECORD
  5
1280
330
11D5
100
AcDbSymbolTableRecord
100
AcDbBlockTableRecord
  2
*D8
  0
BLOCK_RECORD
  5
1289
330
11D5
100
AcDbSymbolTableRecord
100
AcDbBlockTableRecord
  2
*U9
  0
BLOCK_RECORD
  5
128F
330
11D5
100
AcDbSymbolTableRecord
100
AcDbBlockTableRecord
  2
*D10
  0
BLOCK_RECORD
  5
1296
330
11D5
100
AcDbSymbolTableRecord
100
AcDbBlockTableRecord
  2
*U11
  0
BLOCK_RECORD
  5
129C
330
11D5
100
AcDbSymbolTableRecord
100
AcDbBlockTableRecord
  2
*D12
  0
BLOCK_RECORD
  5
12A0
330
11D5
100
AcDbSymbolTableRecord
100
AcDbBlockTableRecord
  2
*U13
  0
BLOCK_RECORD
  5
12A9
330
11D5
100
AcDbSymbolTableRecord
100
AcDbBlockTableRecord
  2
*D14
  0
BLOCK_RECORD
  5
12B2
330
11D5
100
AcDbSymbolTableRecord
100
AcDbBlockTableRecord
  2
*U15
  0
BLOCK_RECORD
  5
12B8
330
11D5
100
AcDbSymbolTableRecord
100
AcDbBlockTableRecord
  2
*D16
  0
BLOCK_RECORD
  5
12BF
330
11D5
100
AcDbSymbolTableRecord
100
AcDbBlockTableRecord
  2
*U17
  0
BLOCK_RECORD
  5
12C5
330
11D5
100
AcDbSymbolTableRecord
100
AcDbBlockTableRecord
  2
*D18
  0
BLOCK_RECORD
  5
12CE
330
11D5
100
AcDbSymbolTableRecord
100
AcDbBlockTableRecord
  2
*U19
  0
BLOCK_RECORD
  5
12D4
330
11D5
100
AcDbSymbolTableRecord
100
AcDbBlockTableRecord
  2
*D20
  0
BLOCK_RECORD
  5
12D8
330
11D5
100
AcDbSymbolTableRecord
100
AcDbBlockTableRecord
  2
*U21
  0
BLOCK_RECORD
  5
12DD
330
11D5
100
AcDbSymbolTableRecord
100
AcDbBlockTableRecord
  2
*D22
  0
BLOCK_RECORD
  5
12E1
330
11D5
100
AcDbSymbolTableRecord
100
AcDbBlockTableRecord
  2
*U23
  0
BLOCK_RECORD
  5
12E9
330
11D5
100
AcDbSymbolTableRecord
100
AcDbBlockTableRecord
  2
*D24
  0
BLOCK_RECORD
  5
12F0
330
11D5
100
AcDbSymbolTableRecord
100
AcDbBlockTableRecord
  2
*U25
  0
BLOCK_RECORD
  5
12F6
330
11D5
100
AcDbSymbolTableRecord
100
AcDbBlockTableRecord
  2
*D26
  0
BLOCK_RECORD
  5
12FC
330
11D5
100
AcDbSymbolTableRecord
100
AcDbBlockTableRecord
  2
*U27
  0
BLOCK_RECORD
  5
1302
330
11D5
100
AcDbSymbolTableRecord
100
AcDbBlockTableRecord
  2
*D28
  0
BLOCK_RECORD
  5
1308
330
11D5
100
AcDbSymbolTableRecord
100
AcDbBlockTableRecord
  2
*U29
  0
BLOCK_RECORD
  5
130E
330
11D5
100
AcDbSymbolTableRecord
100
AcDbBlockTableRecord
  2
*D30
  0
BLOCK_RECORD
  5
1314
330
11D5
100
AcDbSymbolTableRecord
100
AcDbBlockTableRecord
  2
*U31
  0
BLOCK_RECORD
  5
131A
330
11D5
100
AcDbSymbolTableRecord
100
AcDbBlockTableRecord
  2
*D32
  0
BLOCK_RECORD
  5
1321
330
11D5
100
AcDbSymbolTableRecord
100
AcDbBlockTableRecord
  2
*U33
  0
BLOCK_RECORD
  5
1327
330
11D5
100
AcDbSymbolTableRecord
100
AcDbBlockTableRecord
  2
*D34
  0
BLOCK_RECORD
  5
132B
330
11D5
100
AcDbSymbolTableRecord
100
AcDbBlockTableRecord
  2
*U35
  0
BLOCK_RECORD
  5
1333
330
11D5
100
AcDbSymbolTableRecord
100
AcDbBlockTableRecord
  2
*D36
  0
BLOCK_RECORD
  5
1339
330
11D5
100
AcDbSymbolTableRecord
100
AcDbBlockTableRecord
  2
*U37
  0
BLOCK_RECORD
  5
133F
330
11D5
100
AcDbSymbolTableRecord
100
AcDbBlockTableRecord
  2
*D38
  0
BLOCK_RECORD
  5
1344
330
11D5
100
AcDbSymbolTableRecord
100
AcDbBlockTableRecord
  2
*U39
  0
BLOCK_RECORD
  5
134A
330
11D5
100
AcDbSymbolTableRecord
100
AcDbBlockTableRecord
  2
*D40
  0
BLOCK_RECORD
  5
1350
330
11D5
100
AcDbSymbolTableRecord
100
AcDbBlockTableRecord
  2
*U41
  0
BLOCK_RECORD
  5
1355
330
11D5
100
AcDbSymbolTableRecord
100
AcDbBlockTableRecord
  2
A$C3D9D1D5D
  0
BLOCK_RECORD
  5
13AA
330
11D5
100
AcDbSymbolTableRecord
100
AcDbBlockTableRecord
  2
*U43
  0
BLOCK_RECORD
  5
13AE
330
11D5
100
AcDbSymbolTableRecord
100
AcDbBlockTableRecord
  2
*U44
  0
BLOCK_RECORD
  5
13D4
330
11D5
100
AcDbSymbolTableRecord
100
AcDbBlockTableRecord
  2
*D45
  0
BLOCK_RECORD
  5
13DA
330
11D5
100
AcDbSymbolTableRecord
100
AcDbBlockTableRecord
  2
*U46
  0
BLOCK_RECORD
  5
13E0
330
11D5
100
AcDbSymbolTableRecord
100
AcDbBlockTableRecord
  2
*D47
  0
BLOCK_RECORD
  5
13E6
330
11D5
100
AcDbSymbolTableRecord
100
AcDbBlockTableRecord
  2
*U48
  0
BLOCK_RECORD
  5
13EC
330
11D5
100
AcDbSymbolTableRecord
100
AcDbBlockTableRecord
  2
*D49
  0
BLOCK_RECORD
  5
13F2
330
11D5
100
AcDbSymbolTableRecord
100
AcDbBlockTableRecord
  2
*U50
  0
BLOCK_RECORD
  5
13F8
330
11D5
100
AcDbSymbolTableRecord
100
AcDbBlockTableRecord
  2
*D51
  0
BLOCK_RECORD
  5
1401
330
11D5
100
AcDbSymbolTableRecord
100
AcDbBlockTableRecord
  2
*U52
  0
BLOCK_RECORD
  5
1407
330
11D5
100
AcDbSymbolTableRecord
100
AcDbBlockTableRecord
  2
*D53
  0
BLOCK_RECORD
  5
140E
330
11D5
100
AcDbSymbolTableRecord
100
AcDbBlockTableRecord
  2
*U54
  0
BLOCK_RECORD
  5
1414
330
11D5
100
AcDbSymbolTableRecord
100
AcDbBlockTableRecord
  2
*D55
  0
BLOCK_RECORD
  5
141D
330
11D5
100
AcDbSymbolTableRecord
100
AcDbBlockTableRecord
  2
*U56
  0
BLOCK_RECORD
  5
1423
330
11D5
100
AcDbSymbolTableRecord
100
AcDbBlockTableRecord
  2
*D57
  0
BLOCK_RECORD
  5
1427
330
11D5
100
AcDbSymbolTableRecord
100
AcDbBlockTableRecord
  2
*U58
  0
BLOCK_RECORD
  5
142C
330
11D5
100
AcDbSymbolTableRecord
100
AcDbBlockTableRecord
  2
*D59
  0
BLOCK_RECORD
  5
1430
330
11D5
100
AcDbSymbolTableRecord
100
AcDbBlockTableRecord
  2
*U60
  0
BLOCK_RECORD
  5
1438
330
11D5
100
AcDbSymbolTableRecord
100
AcDbBlockTableRecord
  2
*D61
  0
BLOCK_RECORD
  5
143F
330
11D5
100
AcDbSymbolTableRecord
100
AcDbBlockTableRecord
  2
*U62
  0
BLOCK_RECORD
  5
1445
330
11D5
100
AcDbSymbolTableRecord
100
AcDbBlockTableRecord
  2
*D63
  0
BLOCK_RECORD
  5
144C
330
11D5
100
AcDbSymbolTableRecord
100
AcDbBlockTableRecord
  2
*U64
  0
BLOCK_RECORD
  5
1452
330
11D5
100
AcDbSymbolTableRecord
100
AcDbBlockTableRecord
  2
*D65
  0
BLOCK_RECORD
  5
1459
330
11D5
100
AcDbSymbolTableRecord
100
AcDbBlockTableRecord
  2
*U66
  0
BLOCK_RECORD
  5
145F
330
11D5
100
AcDbSymbolTableRecord
100
AcDbBlockTableRecord
  2
*D67
  0
BLOCK_RECORD
  5
1466
330
11D5
100
AcDbSymbolTableRecord
100
AcDbBlockTableRecord
  2
*U68
  0
BLOCK_RECORD
  5
146C
330
11D5
100
AcDbSymbolTableRecord
100
AcDbBlockTableRecord
  2
*D69
  0
BLOCK_RECORD
  5
1473
330
11D5
100
AcDbSymbolTableRecord
100
AcDbBlockTableRecord
  2
*U70
  0
BLOCK_RECORD
  5
1478
330
11D5
100
AcDbSymbolTableRecord
100
AcDbBlockTableRecord
  2
*D71
  0
BLOCK_RECORD
  5
147F
330
11D5
100
AcDbSymbolTableRecord
100
AcDbBlockTableRecord
  2
*U72
  0
BLOCK_RECORD
  5
1485
330
11D5
100
AcDbSymbolTableRecord
100
AcDbBlockTableRecord
  2
*D73
  0
BLOCK_RECORD
  5
148C
330
11D5
100
AcDbSymbolTableRecord
100
AcDbBlockTableRecord
  2
*U74
  0
BLOCK_RECORD
  5
1492
330
11D5
100
AcDbSymbolTableRecord
100
AcDbBlockTableRecord
  2
*D75
  0
BLOCK_RECORD
  5
149B
330
11D5
100
AcDbSymbolTableRecord
100
AcDbBlockTableRecord
  2
*U76
  0
BLOCK_RECORD
  5
14A1
330
11D5
100
AcDbSymbolTableRecord
100
AcDbBlockTableRecord
  2
*D77
  0
BLOCK_RECORD
  5
14A8
330
11D5
100
AcDbSymbolTableRecord
100
AcDbBlockTableRecord
  2
*U78
  0
BLOCK_RECORD
  5
14AE
330
11D5
100
AcDbSymbolTableRecord
100
AcDbBlockTableRecord
  2
*D79
  0
BLOCK_RECORD
  5
14B2
330
11D5
100
AcDbSymbolTableRecord
100
AcDbBlockTableRecord
  2
*U80
  0
BLOCK_RECORD
  5
14BB
330
11D5
100
AcDbSymbolTableRecord
100
AcDbBlockTableRecord
  2
*D81
  0
BLOCK_RECORD
  5
14C4
330
11D5
100
AcDbSymbolTableRecord
100
AcDbBlockTableRecord
  2
*U82
  0
BLOCK_RECORD
  5
14CA
330
11D5
100
AcDbSymbolTableRecord
100
AcDbBlockTableRecord
  2
*D83
  0
BLOCK_RECORD
  5
14D1
330
11D5
100
AcDbSymbolTableRecord
100
AcDbBlockTableRecord
  2
*U84
  0
BLOCK_RECORD
  5
14D7
330
11D5
100
AcDbSymbolTableRecord
100
AcDbBlockTableRecord
  2
*D85
  0
BLOCK_RECORD
  5
14E0
330
11D5
100
AcDbSymbolTableRecord
100
AcDbBlockTableRecord
  2
*U86
  0
BLOCK_RECORD
  5
14E6
330
11D5
100
AcDbSymbolTableRecord
100
AcDbBlockTableRecord
  2
*D87
  0
BLOCK_RECORD
  5
14ED
330
11D5
100
AcDbSymbolTableRecord
100
AcDbBlockTableRecord
  2
*U88
  0
BLOCK_RECORD
  5
14F3
330
11D5
100
AcDbSymbolTableRecord
100
AcDbBlockTableRecord
  2
*D89
  0
BLOCK_RECORD
  5
14FA
330
11D5
100
AcDbSymbolTableRecord
100
AcDbBlockTableRecord
  2
*U90
  0
BLOCK_RECORD
  5
1500
330
11D5
100
AcDbSymbolTableRecord
100
AcDbBlockTableRecord
  2
*D91
  0
BLOCK_RECORD
  5
1506
330
11D5
100
AcDbSymbolTableRecord
100
AcDbBlockTableRecord
  2
*U92
  0
BLOCK_RECORD
  5
150C
330
11D5
100
AcDbSymbolTableRecord
100
AcDbBlockTableRecord
  2
*D93
  0
BLOCK_RECORD
  5
1513
330
11D5
100
AcDbSymbolTableRecord
100
AcDbBlockTableRecord
  2
*U94
  0
BLOCK_RECORD
  5
1519
330
11D5
100
AcDbSymbolTableRecord
100
AcDbBlockTableRecord
  2
*D95
  0
BLOCK_RECORD
  5
151D
330
11D5
100
AcDbSymbolTableRecord
100
AcDbBlockTableRecord
  2
*U96
  0
BLOCK_RECORD
  5
1525
330
11D5
100
AcDbSymbolTableRecord
100
AcDbBlockTableRecord
  2
*D97
  0
BLOCK_RECORD
  5
152B
330
11D5
100
AcDbSymbolTableRecord
100
AcDbBlockTableRecord
  2
*U98
  0
BLOCK_RECORD
  5
1531
330
11D5
100
AcDbSymbolTableRecord
100
AcDbBlockTableRecord
  2
*D99
  0
BLOCK_RECORD
  5
1536
330
11D5
100
AcDbSymbolTableRecord
100
AcDbBlockTableRecord
  2
*U100
  0
BLOCK_RECORD
  5
153C
330
11D5
100
AcDbSymbolTableRecord
100
AcDbBlockTableRecord
  2
*D101
  0
BLOCK_RECORD
  5
1542
330
11D5
100
AcDbSymbolTableRecord
100
AcDbBlockTableRecord
  2
*U102
  0
BLOCK_RECORD
  5
1548
330
11D5
100
AcDbSymbolTableRecord
100
AcDbBlockTableRecord
  2
*D103
  0
BLOCK_RECORD
  5
154D
330
11D5
100
AcDbSymbolTableRecord
100
AcDbBlockTableRecord
  2
*U104
  0
BLOCK_RECORD
  5
1553
330
11D5
100
AcDbSymbolTableRecord
100
AcDbBlockTableRecord
  2
*D105
  0
BLOCK_RECORD
  5
155A
330
11D5
100
AcDbSymbolTableRecord
100
AcDbBlockTableRecord
  2
*U106
  0
BLOCK_RECORD
  5
1564
330
11D5
100
AcDbSymbolTableRecord
100
AcDbBlockTableRecord
  2
*D107
  0
BLOCK_RECORD
  5
156B
330
11D5
100
AcDbSymbolTableRecord
100
AcDbBlockTableRecord
  2
*U108
  0
BLOCK_RECORD
  5
1573
330
11D5
100
AcDbSymbolTableRecord
100
AcDbBlockTableRecord
  2
*D109
  0
BLOCK_RECORD
  5
157A
330
11D5
100
AcDbSymbolTableRecord
100
AcDbBlockTableRecord
  2
*U110
  0
BLOCK_RECORD
  5
1580
330
11D5
100
AcDbSymbolTableRecord
100
AcDbBlockTableRecord
  2
*D111
  0
BLOCK_RECORD
  5
1589
330
11D5
100
AcDbSymbolTableRecord
100
AcDbBlockTableRecord
  2
*U112
  0
BLOCK_RECORD
  5
158F
330
11D5
100
AcDbSymbolTableRecord
100
AcDbBlockTableRecord
  2
*D113
  0
BLOCK_RECORD
  5
1596
330
11D5
100
AcDbSymbolTableRecord
100
AcDbBlockTableRecord
  2
*U114
  0
BLOCK_RECORD
  5
159C
330
11D5
100
AcDbSymbolTableRecord
100
AcDbBlockTableRecord
  2
*D115
  0
BLOCK_RECORD
  5
15A3
330
11D5
100
AcDbSymbolTableRecord
100
AcDbBlockTableRecord
  2
*U116
  0
BLOCK_RECORD
  5
15A9
330
11D5
100
AcDbSymbolTableRecord
100
AcDbBlockTableRecord
  2
*D117
  0
BLOCK_RECORD
  5
15AF
330
11D5
100
AcDbSymbolTableRecord
100
AcDbBlockTableRecord
  2
*U118
  0
BLOCK_RECORD
  5
15B5
330
11D5
100
AcDbSymbolTableRecord
100
AcDbBlockTableRecord
  2
*D119
  0
BLOCK_RECORD
  5
15BC
330
11D5
100
AcDbSymbolTableRecord
100
AcDbBlockTableRecord
  2
*U120
  0
BLOCK_RECORD
  5
15C2
330
11D5
100
AcDbSymbolTableRecord
100
AcDbBlockTableRecord
  2
*D121
  0
BLOCK_RECORD
  5
15C6
330
11D5
100
AcDbSymbolTableRecord
100
AcDbBlockTableRecord
  2
*U122
  0
BLOCK_RECORD
  5
15CE
330
11D5
100
AcDbSymbolTableRecord
100
AcDbBlockTableRecord
  2
*D123
  0
BLOCK_RECORD
  5
15D5
330
11D5
100
AcDbSymbolTableRecord
100
AcDbBlockTableRecord
  2
*U124
  0
BLOCK_RECORD
  5
15DB
330
11D5
100
AcDbSymbolTableRecord
100
AcDbBlockTableRecord
  2
*D125
  0
BLOCK_RECORD
  5
15DF
330
11D5
100
AcDbSymbolTableRecord
100
AcDbBlockTableRecord
  2
*U126
  0
BLOCK_RECORD
  5
15E8
330
11D5
100
AcDbSymbolTableRecord
100
AcDbBlockTableRecord
  2
*D127
  0
BLOCK_RECORD
  5
15F1
330
11D5
100
AcDbSymbolTableRecord
100
AcDbBlockTableRecord
  2
*U128
  0
BLOCK_RECORD
  5
15F7
330
11D5
100
AcDbSymbolTableRecord
100
AcDbBlockTableRecord
  2
*D129
  0
BLOCK_RECORD
  5
15FE
330
11D5
100
AcDbSymbolTableRecord
100
AcDbBlockTableRecord
  2
*U130
  0
BLOCK_RECORD
  5
1604
330
11D5
100
AcDbSymbolTableRecord
100
AcDbBlockTableRecord
  2
*D131
  0
BLOCK_RECORD
  5
160D
330
11D5
100
AcDbSymbolTableRecord
100
AcDbBlockTableRecord
  2
*U132
  0
BLOCK_RECORD
  5
1613
330
11D5
100
AcDbSymbolTableRecord
100
AcDbBlockTableRecord
  2
*D133
  0
BLOCK_RECORD
  5
161A
330
11D5
100
AcDbSymbolTableRecord
100
AcDbBlockTableRecord
  2
*U134
  0
BLOCK_RECORD
  5
1620
330
11D5
100
AcDbSymbolTableRecord
100
AcDbBlockTableRecord
  2
*D135
  0
BLOCK_RECORD
  5
1627
330
11D5
100
AcDbSymbolTableRecord
100
AcDbBlockTableRecord
  2
*U136
  0
BLOCK_RECORD
  5
162D
330
11D5
100
AcDbSymbolTableRecord
100
AcDbBlockTableRecord
  2
*D137
  0
BLOCK_RECORD
  5
1632
330
11D5
100
AcDbSymbolTableRecord
100
AcDbBlockTableRecord
  2
*U138
  0
BLOCK_RECORD
  5
1638
330
11D5
100
AcDbSymbolTableRecord
100
AcDbBlockTableRecord
  2
*D139
  0
BLOCK_RECORD
  5
163E
330
11D5
100
AcDbSymbolTableRecord
100
AcDbBlockTableRecord
  2
*U140
  0
BLOCK_RECORD
  5
1644
330
11D5
100
AcDbSymbolTableRecord
100
AcDbBlockTableRecord
  2
*D141
  0
BLOCK_RECORD
  5
1649
330
11D5
100
AcDbSymbolTableRecord
100
AcDbBlockTableRecord
  2
*U142
  0
BLOCK_RECORD
  5
164F
330
11D5
100
AcDbSymbolTableRecord
100
AcDbBlockTableRecord
  2
*D143
  0
BLOCK_RECORD
  5
1656
330
11D5
100
AcDbSymbolTableRecord
100
AcDbBlockTableRecord
  2
*U144
  0
BLOCK_RECORD
  5
1660
330
11D5
100
AcDbSymbolTableRecord
100
AcDbBlockTableRecord
  2
*D145
  0
BLOCK_RECORD
  5
1669
330
11D5
100
AcDbSymbolTableRecord
100
AcDbBlockTableRecord
  2
*U146
  0
BLOCK_RECORD
  5
1671
330
11D5
100
AcDbSymbolTableRecord
100
AcDbBlockTableRecord
  2
*D147
  0
BLOCK_RECORD
  5
1678
330
11D5
100
AcDbSymbolTableRecord
100
AcDbBlockTableRecord
  2
*U148
  0
BLOCK_RECORD
  5
167E
330
11D5
100
AcDbSymbolTableRecord
100
AcDbBlockTableRecord
  2
*D149
  0
BLOCK_RECORD
  5
1685
330
11D5
100
AcDbSymbolTableRecord
100
AcDbBlockTableRecord
  2
*U150
  0
BLOCK_RECORD
  5
168B
330
11D5
100
AcDbSymbolTableRecord
100
AcDbBlockTableRecord
  2
*D151
  0
BLOCK_RECORD
  5
1691
330
11D5
100
AcDbSymbolTableRecord
100
AcDbBlockTableRecord
  2
*U152
  0
BLOCK_RECORD
  5
1696
330
11D5
100
AcDbSymbolTableRecord
100
AcDbBlockTableRecord
  2
*D153
  0
BLOCK_RECORD
  5
169D
330
11D5
100
AcDbSymbolTableRecord
100
AcDbBlockTableRecord
  2
*U154
  0
BLOCK_RECORD
  5
16A7
330
11D5
100
AcDbSymbolTableRecord
100
AcDbBlockTableRecord
  2
*D155
  0
BLOCK_RECORD
  5
16AE
330
11D5
100
AcDbSymbolTableRecord
100
AcDbBlockTableRecord
  2
*U156
  0
BLOCK_RECORD
  5
16B4
330
11D5
100
AcDbSymbolTableRecord
100
AcDbBlockTableRecord
  2
*D157
  0
BLOCK_RECORD
  5
16BB
330
11D5
100
AcDbSymbolTableRecord
100
AcDbBlockTableRecord
  2
*U158
  0
BLOCK_RECORD
  5
16C1
330
11D5
100
AcDbSymbolTableRecord
100
AcDbBlockTableRecord
  2
*D159
  0
BLOCK_RECORD
  5
16C8
330
11D5
100
AcDbSymbolTableRecord
100
AcDbBlockTableRecord
  2
*U160
  0
BLOCK_RECORD
  5
16CE
330
11D5
100
AcDbSymbolTableRecord
100
AcDbBlockTableRecord
  2
*D161
  0
BLOCK_RECORD
  5
16D4
330
11D5
100
AcDbSymbolTableRecord
100
AcDbBlockTableRecord
  2
*U162
  0
BLOCK_RECORD
  5
16D9
330
11D5
100
AcDbSymbolTableRecord
100
AcDbBlockTableRecord
  2
*D163
  0
BLOCK_RECORD
  5
16E0
330
11D5
100
AcDbSymbolTableRecord
100
AcDbBlockTableRecord
  2
*U164
  0
BLOCK_RECORD
  5
16EA
330
11D5
100
AcDbSymbolTableRecord
100
AcDbBlockTableRecord
  2
*D165
  0
BLOCK_RECORD
  5
16F1
330
11D5
100
AcDbSymbolTableRecord
100
AcDbBlockTableRecord
  2
*U166
  0
BLOCK_RECORD
  5
16F7
330
11D5
100
AcDbSymbolTableRecord
100
AcDbBlockTableRecord
  2
*D167
  0
BLOCK_RECORD
  5
16FE
330
11D5
100
AcDbSymbolTableRecord
100
AcDbBlockTableRecord
  2
*U168
  0
BLOCK_RECORD
  5
175D
330
11D5
100
AcDbSymbolTableRecord
100
AcDbBlockTableRecord
  2
*U169
  0
BLOCK_RECORD
  5
176C
330
11D5
100
AcDbSymbolTableRecord
100
AcDbBlockTableRecord
  2
*U170
  0
BLOCK_RECORD
  5
1770
330
11D5
100
AcDbSymbolTableRecord
100
AcDbBlockTableRecord
  2
*U171
  0
BLOCK_RECORD
  5
17B0
330
11D5
100
AcDbSymbolTableRecord
100
AcDbBlockTableRecord
  2
*U172
  0
BLOCK_RECORD
  5
17B4
330
11D5
100
AcDbSymbolTableRecord
100
AcDbBlockTableRecord
  2
*U173
  0
BLOCK_RECORD
  5
17B8
330
11D5
100
AcDbSymbolTableRecord
100
AcDbBlockTableRecord
  2
*U174
  0
BLOCK_RECORD
  5
17F1
330
11D5
100
AcDbSymbolTableRecord
100
AcDbBlockTableRecord
  2
*U175
  0
BLOCK_RECORD
  5
17F9
330
11D5
100
AcDbSymbolTableRecord
100
AcDbBlockTableRecord
  2
*U176
  0
BLOCK_RECORD
  5
18D0
330
11D5
100
AcDbSymbolTableRecord
100
AcDbBlockTableRecord
  2
*D177
  0
ENDTAB
  0
ENDSEC
  0
SECTION
  2
BLOCKS
  0
BLOCK
  5
11F3
330
11F2
100
AcDbEntity
  8
0
100
AcDbBlockBegin
  2
*MODEL_SPACE
 70
     0
 10
0.0
 20
0.0
 30
0.0
  3
*MODEL_SPACE
  1

  0
ENDBLK
  5
11F4
330
11F2
100
AcDbEntity
  8
0
100
AcDbBlockEnd
  0
BLOCK
  5
11EF
330
11EE
100
AcDbEntity
 67
     1
  8
0
100
AcDbBlockBegin
  2
*PAPER_SPACE
 70
     0
 10
0.0
 20
0.0
 30
0.0
  3
*PAPER_SPACE
  1

  0
ENDBLK
  5
11F0
330
11EE
100
AcDbEntity
 67
     1
  8
0
100
AcDbBlockEnd
  0
BLOCK
  5
1221
330
1220
100
AcDbEntity
  8
0
100
AcDbBlockBegin
  2
$MODEL_SPACE
 70
     0
 10
0.0
 20
0.0
 30
0.0
  3
$MODEL_SPACE
  1

  0
ENDBLK
  5
1222
330
1220
100
AcDbEntity
  8
0
100
AcDbBlockEnd
  0
BLOCK
  5
1224
330
1223
100
AcDbEntity
  8
0
100
AcDbBlockBegin
  2
$PAPER_SPACE
 70
     0
 10
0.0
 20
0.0
 30
0.0
  3
$PAPER_SPACE
  1

  0
ENDBLK
  5
1225
330
1223
100
AcDbEntity
  8
0
100
AcDbBlockEnd
  0
BLOCK
  5
1227
330
1226
100
AcDbEntity
  8
0
100
AcDbBlockBegin
  2
_OPEN30
 70
     0
 10
0.0
 20
0.0
 30
0.0
  3
_OPEN30
  1

  0
LINE
  5
1228
330
1226
100
AcDbEntity
  8
0
  6
BYBLOCK
 62
     0
100
AcDbLine
 10
-1.0
 20
0.26794919
 30
0.0
 11
0.0
 21
0.0
 31
0.0
  0
LINE
  5
1229
330
1226
100
AcDbEntity
  8
0
  6
BYBLOCK
 62
     0
100
AcDbLine
 10
0.0
 20
0.0
 30
0.0
 11
-1.0
 21
-0.26794919
 31
0.0
  0
LINE
  5
122A
330
1226
100
AcDbEntity
  8
0
  6
BYBLOCK
 62
     0
100
AcDbLine
 10
0.0
 20
0.0
 30
0.0
 11
-1.0
 21
0.0
 31
0.0
  0
ENDBLK
  5
122B
330
1226
100
AcDbEntity
  8
0
100
AcDbBlockEnd
  0
BLOCK
  5
122D
330
122C
100
AcDbEntity
  8
0
100
AcDbBlockBegin
  2
FORMAT
 70
     0
 10
0.0
 20
0.0
 30
0.0
  3
FORMAT
  1

  0
LINE
  5
122E
330
122C
100
AcDbEntity
  8
0
  6
CONTINUOUS
 62
     2
100
AcDbLine
 10
10.00001
 20
200.0000149999999
 30
0.0
 11
287.0
 21
200.0000149999999
 31
0.0
  0
LINE
  5
122F
330
122C
100
AcDbEntity
  8
0
  6
CONTINUOUS
 62
     2
100
AcDbLine
 10
287.0
 20
200.0
 30
0.0
 11
287.0
 21
10.00001
 31
0.0
  0
LINE
  5
1230
330
122C
100
AcDbEntity
  8
0
  6
CONTINUOUS
 62
     2
100
AcDbLine
 10
287.0
 20
10.00001
 30
0.0
 11
10.00001
 21
10.00001
 31
0.0
  0
LINE
  5
1231
330
122C
100
AcDbEntity
  8
0
  6
CONTINUOUS
 62
     2
100
AcDbLine
 10
10.00001
 20
10.00001
 30
0.0
 11
10.00001
 21
200.0000149999999
 31
0.0
  0
LINE
  5
1232
330
122C
100
AcDbEntity
  8
0
  6
CONTINUOUS
 62
     4
100
AcDbLine
 10
237.000015
 20
42.00000099999999
 30
0.0
 11
287.0
 21
42.00000099999999
 31
0.0
  0
LINE
  5
1233
330
122C
100
AcDbEntity
  8
0
  6
CONTINUOUS
 62
     4
100
AcDbLine
 10
10.00001
 20
34.00001
 30
0.0
 11
287.0
 21
34.00001
 31
0.0
  0
LINE
  5
1234
330
122C
100
AcDbEntity
  8
0
  6
CONTINUOUS
 62
     4
100
AcDbLine
 10
18.00000999999999
 20
26.00001
 30
0.0
 11
114.0000079999999
 21
26.00001
 31
0.0
  0
LINE
  5
1235
330
122C
100
AcDbEntity
  8
0
  6
CONTINUOUS
 62
     4
100
AcDbLine
 10
18.00000999999999
 20
18.00000999999999
 30
0.0
 11
114.0000079999999
 21
18.00000999999999
 31
0.0
  0
LINE
  5
1236
330
122C
100
AcDbEntity
  8
0
  6
CONTINUOUS
 62
     4
100
AcDbLine
 10
114.0000079999999
 20
22.0
 30
0.0
 11
237.000015
 21
22.0
 31
0.0
  0
LINE
  5
1237
330
122C
100
AcDbEntity
  8
0
  6
CONTINUOUS
 62
     4
100
AcDbLine
 10
237.000015
 20
18.0
 30
0.0
 11
287.0
 21
18.0
 31
0.0
  0
LINE
  5
1238
330
122C
100
AcDbEntity
  8
0
  6
CONTINUOUS
 62
     4
100
AcDbLine
 10
257.000015
 20
26.0
 30
0.0
 11
287.0
 21
26.0
 31
0.0
  0
LINE
  5
1239
330
122C
100
AcDbEntity
  8
0
  6
CONTINUOUS
 62
     4
100
AcDbLine
 10
18.00000999999999
 20
34.00001
 30
0.0
 11
18.00000999999999
 21
10.00001
 31
0.0
  0
LINE
  5
123A
330
122C
100
AcDbEntity
  8
0
  6
CONTINUOUS
 62
     4
100
AcDbLine
 10
82.00000799999996
 20
34.0
 30
0.0
 11
82.00000799999996
 21
10.0
 31
0.0
  0
LINE
  5
123B
330
122C
100
AcDbEntity
  8
0
  6
CONTINUOUS
 62
     4
100
AcDbLine
 10
94.00000799999999
 20
34.0
 30
0.0
 11
94.00000799999999
 21
10.0
 31
0.0
  0
LINE
  5
123C
330
122C
100
AcDbEntity
  8
0
  6
CONTINUOUS
 62
     4
100
AcDbLine
 10
114.0000079999999
 20
34.0
 30
0.0
 11
114.0000079999999
 21
10.0
 31
0.0
  0
LINE
  5
123D
330
122C
100
AcDbEntity
  8
0
  6
CONTINUOUS
 62
     4
100
AcDbLine
 10
122.0000079999999
 20
34.0
 30
0.0
 11
122.0000079999999
 21
10.0
 31
0.0
  0
LINE
  5
123E
330
122C
100
AcDbEntity
  8
0
  6
CONTINUOUS
 62
     4
100
AcDbLine
 10
137.0000149999999
 20
34.0
 30
0.0
 11
137.0000149999999
 21
10.0
 31
0.0
  0
LINE
  5
123F
330
122C
100
AcDbEntity
  8
0
  6
CONTINUOUS
 62
     4
100
AcDbLine
 10
145.0000149999999
 20
34.0
 30
0.0
 11
145.0000149999999
 21
10.0
 31
0.0
  0
LINE
  5
1240
330
122C
100
AcDbEntity
  8
0
  6
CONTINUOUS
 62
     4
100
AcDbLine
 10
160.0000149999999
 20
34.0
 30
0.0
 11
160.0000149999999
 21
10.0
 31
0.0
  0
LINE
  5
1241
330
122C
100
AcDbEntity
  8
0
  6
CONTINUOUS
 62
     4
100
AcDbLine
 10
172.0000149999999
 20
34.0
 30
0.0
 11
172.0000149999999
 21
10.0
 31
0.0
  0
LINE
  5
1242
330
122C
100
AcDbEntity
  8
0
  6
CONTINUOUS
 62
     4
100
AcDbLine
 10
237.000015
 20
42.00000099999999
 30
0.0
 11
237.000015
 21
10.0
 31
0.0
  0
LINE
  5
1243
330
122C
100
AcDbEntity
  8
0
  6
CONTINUOUS
 62
     4
100
AcDbLine
 10
245.000015
 20
34.0
 30
0.0
 11
245.000015
 21
18.0
 31
0.0
  0
LINE
  5
1244
330
122C
100
AcDbEntity
  8
0
  6
CONTINUOUS
 62
     4
100
AcDbLine
 10
247.000015
 20
42.00000099999999
 30
0.0
 11
247.000015
 21
34.0
 31
0.0
  0
LINE
  5
1245
330
122C
100
AcDbEntity
  8
0
  6
CONTINUOUS
 62
     4
100
AcDbLine
 10
257.000015
 20
34.0
 30
0.0
 11
257.000015
 21
18.0
 31
0.0
  0
TEXT
  5
1246
330
122C
100
AcDbEntity
  8
0
 62
     4
100
AcDbText
 10
12.50001
 20
24.50001
 30
0.0
 40
3.0
  1
摘
  7
KANJI1
100
AcDbText
  0
TEXT
  5
1247
330
122C
100
AcDbEntity
  8
0
 62
     4
100
AcDbText
 10
12.50001
 20
16.50001
 30
0.0
 40
3.0
  1
要
  7
KANJI1
100
AcDbText
  0
TEXT
  5
1248
330
122C
100
AcDbEntity
  8
0
 62
     4
100
AcDbText
 10
83.50000799999998
 20
28.5
 30
0.0
 40
3.0
  1
材
  7
KANJI1
100
AcDbText
  0
TEXT
  5
1249
330
122C
100
AcDbEntity
  8
0
 62
     4
100
AcDbText
 10
89.50000799999996
 20
28.5
 30
0.0
 40
3.0
  1
質
  7
KANJI1
100
AcDbText
  0
TEXT
  5
124A
330
122C
100
AcDbEntity
  8
0
 62
     4
100
AcDbText
 10
83.50000799999998
 20
20.5
 30
0.0
 40
3.0
  1
硬
  7
KANJI1
100
AcDbText
  0
TEXT
  5
124B
330
122C
100
AcDbEntity
  8
0
 62
     4
100
AcDbText
 10
89.50000799999996
 20
20.5
 30
0.0
 40
3.0
  1
度
  7
KANJI1
100
AcDbText
  0
TEXT
  5
124C
330
122C
100
AcDbEntity
  8
0
 62
     4
100
AcDbText
 10
83.50000799999998
 20
12.5
 30
0.0
 40
3.0
  1
個
  7
KANJI1
100
AcDbText
  0
TEXT
  5
124D
330
122C
100
AcDbEntity
  8
0
 62
     4
100
AcDbText
 10
89.50000799999996
 20
12.5
 30
0.0
 40
3.0
  1
数
  7
KANJI1
100
AcDbText
  0
TEXT
  5
124E
330
122C
100
AcDbEntity
  8
0
 62
     4
100
AcDbText
 10
116.5000079999999
 20
28.5
 30
0.0
 40
3.0
  1
設
  7
KANJI1
100
AcDbText
  0
TEXT
  5
124F
330
122C
100
AcDbEntity
  8
0
 62
     4
100
AcDbText
 10
116.5000079999999
 20
24.5
 30
0.0
 40
3.0
  1
計
  7
KANJI1
100
AcDbText
  0
TEXT
  5
1250
330
122C
100
AcDbEntity
  8
0
 62
     4
100
AcDbText
 10
116.5000079999999
 20
16.5
 30
0.0
 40
3.0
  1
検
  7
KANJI1
100
AcDbText
  0
TEXT
  5
1251
330
122C
100
AcDbEntity
  8
0
 62
     4
100
AcDbText
 10
116.5000079999999
 20
12.5
 30
0.0
 40
3.0
  1
図
  7
KANJI1
100
AcDbText
  0
TEXT
  5
1252
330
122C
100
AcDbEntity
  8
0
 62
     4
100
AcDbText
 10
139.5000149999999
 20
28.5
 30
0.0
 40
3.0
  1
製
  7
KANJI1
100
AcDbText
  0
TEXT
  5
1253
330
122C
100
AcDbEntity
  8
0
 62
     4
100
AcDbText
 10
139.5000149999999
 20
24.5
 30
0.0
 40
3.0
  1
図
  7
KANJI1
100
AcDbText
  0
TEXT
  5
1254
330
122C
100
AcDbEntity
  8
0
 62
     4
100
AcDbText
 10
139.5000149999999
 20
16.5
 30
0.0
 40
3.0
  1
承
  7
KANJI1
100
AcDbText
  0
TEXT
  5
1255
330
122C
100
AcDbEntity
  8
0
 62
     4
100
AcDbText
 10
139.5000149999999
 20
12.5
 30
0.0
 40
3.0
  1
認
  7
KANJI1
100
AcDbText
  0
TEXT
  5
1256
330
122C
100
AcDbEntity
  8
0
 62
     4
100
AcDbText
 10
164.011765
 20
28.5
 30
0.0
 40
3.0
  1
機
  7
KANJI1
100
AcDbText
  0
TEXT
  5
1257
330
122C
100
AcDbEntity
  8
0
 62
     4
100
AcDbText
 10
164.011765
 20
24.5
 30
0.0
 40
3.0
  1
種
  7
KANJI1
100
AcDbText
  0
TEXT
  5
1258
330
122C
100
AcDbEntity
  8
0
 62
     4
100
AcDbText
 10
164.011765
 20
16.5
 30
0.0
 40
3.0
  1
品
  7
KANJI1
100
AcDbText
  0
TEXT
  5
1259
330
122C
100
AcDbEntity
  8
0
 62
     4
100
AcDbText
 10
164.011765
 20
12.5
 30
0.0
 40
3.0
  1
名
  7
KANJI1
100
AcDbText
  0
TEXT
  5
125A
330
122C
100
AcDbEntity
  8
0
 62
     4
100
AcDbText
 10
238.0
 20
12.5
 30
0.0
 40
3.0
  1
ベツセル技研工業株式会社
 41
1.149999999999999
  7
KANJI1
100
AcDbText
  0
TEXT
  5
125B
330
122C
100
AcDbEntity
  8
0
 62
     4
100
AcDbText
 10
238.5000149999999
 20
36.50000099999999
 30
0.0
 40
3.0
  1
図
  7
KANJI1
100
AcDbText
  0
TEXT
  5
125C
330
122C
100
AcDbEntity
  8
0
 62
     4
100
AcDbText
 10
242.5000149999999
 20
36.50000099999999
 30
0.0
 40
3.0
  1
番
  7
KANJI1
100
AcDbText
  0
TEXT
  5
125D
330
122C
100
AcDbEntity
  8
0
 62
     4
100
AcDbText
 10
239.011765
 20
28.5
 30
0.0
 40
3.0
  1
尺
  7
KANJI1
100
AcDbText
  0
TEXT
  5
125E
330
122C
100
AcDbEntity
  8
0
 62
     4
100
AcDbText
 10
239.011765
 20
20.5
 30
0.0
 40
3.0
  1
度
  7
KANJI1
100
AcDbText
  0
TEXT
  5
125F
330
122C
100
AcDbEntity
  8
0
 62
     4
100
AcDbText
 10
249.0
 20
23.5
 30
0.0
 40
5.0
  1
／
  7
KANJI1
100
AcDbText
  0
TEXT
  5
1260
330
122C
100
AcDbEntity
  8
0
 62
     4
100
AcDbText
 10
263.5
 20
27.5
 30
0.0
 40
5.0
  1
３角法
  7
KANJI1
100
AcDbText
  0
TEXT
  5
1261
330
122C
100
AcDbEntity
  8
0
 62
     4
100
AcDbText
 10
251.0
 20
19.99999
 30
0.0
 40
4.0
  1
１
  7
KANJI1
100
AcDbText
  0
TEXT
  5
1262
330
122C
100
AcDbEntity
  8
0
  6
CONTINUOUS
 62
     4
100
AcDbText
 10
247.0
 20
28.0
 30
0.0
 40
4.0
  1
５
  7
KANJI
100
AcDbText
  0
TEXT
  5
1263
330
122C
100
AcDbEntity
  8
0
  6
CONTINUOUS
 62
     4
100
AcDbText
 10
248.0
 20
36.0
 30
0.0
 40
4.0
  1
０６４１３－０２２
 41
0.9
  7
KANJI
100
AcDbText
  0
TEXT
  5
1264
330
122C
100
AcDbEntity
  8
0
  6
CONTINUOUS
 62
     4
100
AcDbText
 10
258.0
 20
20.5
 30
0.0
 40
3.0
  1
”００／０７／０１
 41
0.9
  7
KANJI
100
AcDbText
  0
ENDBLK
  5
1265
330
122C
100
AcDbEntity
  8
0
100
AcDbBlockEnd
  0
BLOCK
  5
1267
330
1266
100
AcDbEntity
  8
0
100
AcDbBlockBegin
  2
*D4
 70
     1
 10
0.0
 20
0.0
 30
0.0
  3
*D4
  1

  0
LINE
  5
1268
330
1266
100
AcDbEntity
  8
DIMENSION
 62
     3
100
AcDbLine
 10
97.20577136594005
 20
118.287643318496
 30
0.0
 11
87.73830926906766
 21
101.8895179479806
 31
0.0
  0
LINE
  5
1269
330
1266
100
AcDbEntity
  8
DIMENSION
 62
     3
100
AcDbLine
 10
112.7942286340599
 20
109.287643318496
 30
0.0
 11
103.3267665371874
 21
92.88951794798055
 31
0.0
  0
LINE
  5
126A
330
1266
100
AcDbEntity
  8
DIMENSION
 62
     3
100
AcDbLine
 10
89.35433467285205
 20
102.6885560536572
 30
0.0
 11
103.2107411334029
 21
94.68855605365723
 31
0.0
  0
INSERT
  5
126B
330
1266
100
AcDbEntity
  8
DIMENSION
 62
     3
100
AcDbBlockReference
  2
_OPEN30
 10
88.48830926906765
 20
103.1885560536572
 30
0.0
 50
149.9999999999998
  0
INSERT
  5
126C
330
1266
100
AcDbEntity
  8
DIMENSION
 62
     3
100
AcDbBlockReference
  2
_OPEN30
 10
104.0767665371874
 20
94.1885560536572
 30
0.0
 50
329.9999999999997
  0
INSERT
  5
126E
330
1266
100
AcDbEntity
  8
0
100
AcDbBlockReference
  2
*U5
 10
0.0
 20
0.0
 30
0.0
  0
POINT
  5
126F
330
1266
100
AcDbEntity
  8
DEFPOINTS
 62
     0
100
AcDbPoint
 10
97.20577136594005
 20
118.287643318496
 30
0.0
  0
POINT
  5
1270
330
1266
100
AcDbEntity
  8
DEFPOINTS
 62
     0
100
AcDbPoint
 10
112.7942286340599
 20
109.287643318496
 30
0.0
  0
POINT
  5
1271
330
1266
100
AcDbEntity
  8
DEFPOINTS
 62
     0
100
AcDbPoint
 10
104.0767665371874
 20
94.1885560536572
 30
0.0
  0
ENDBLK
  5
1272
330
1266
100
AcDbEntity
  8
0
100
AcDbBlockEnd
  0
BLOCK
  5
1703
330
126D
100
AcDbEntity
  8
0
100
AcDbBlockBegin
  2
*U5
 70
     1
 10
0.0
 20
0.0
 30
0.0
  3
*U5
  1

  0
TEXT
  5
1704
330
126D
100
AcDbEntity
  8
DIMENSION
 62
     3
100
AcDbText
 10
94.83769019696557
 20
100.3814378894664
 30
0.0
 40
1.5
  1
φ18
 50
329.9999999999997
  7
GOTHIC
100
AcDbText
  0
ENDBLK
  5
1705
330
126D
100
AcDbEntity
  8
0
100
AcDbBlockEnd
  0
BLOCK
  5
1274
330
1273
100
AcDbEntity
  8
0
100
AcDbBlockBegin
  2
*D6
 70
     1
 10
0.0
 20
0.0
 30
0.0
  3
*D6
  1

  0
LINE
  5
1275
330
1273
100
AcDbEntity
  8
DIMENSION
 62
     3
100
AcDbLine
 10
81.0
 20
114.787643318496
 30
0.0
 11
81.0
 21
133.4999999999999
 31
0.0
  0
LINE
  5
1276
330
1273
100
AcDbEntity
  8
DIMENSION
 62
     3
100
AcDbLine
 10
140.0
 20
114.787643318496
 30
0.0
 11
140.0
 21
133.4999999999999
 31
0.0
  0
LINE
  5
1277
330
1273
100
AcDbEntity
  8
DIMENSION
 62
     3
100
AcDbLine
 10
82.0
 20
132.0
 30
0.0
 11
139.0
 21
132.0
 31
0.0
  0
INSERT
  5
1278
330
1273
100
AcDbEntity
  8
DIMENSION
 62
     3
100
AcDbBlockReference
  2
_OPEN30
 10
81.0
 20
132.0
 30
0.0
 50
180.0
  0
INSERT
  5
1279
330
1273
100
AcDbEntity
  8
DIMENSION
 62
     3
100
AcDbBlockReference
  2
_OPEN30
 10
140.0
 20
132.0
 30
0.0
  0
INSERT
  5
127B
330
1273
100
AcDbEntity
  8
0
100
AcDbBlockReference
  2
*U7
 10
0.0
 20
0.0
 30
0.0
  0
POINT
  5
127C
330
1273
100
AcDbEntity
  8
DEFPOINTS
 62
     0
100
AcDbPoint
 10
81.0
 20
114.787643318496
 30
0.0
  0
POINT
  5
127D
330
1273
100
AcDbEntity
  8
DEFPOINTS
 62
     0
100
AcDbPoint
 10
140.0
 20
114.787643318496
 30
0.0
  0
POINT
  5
127E
330
1273
100
AcDbEntity
  8
DEFPOINTS
 62
     0
100
AcDbPoint
 10
140.0
 20
132.0
 30
0.0
  0
ENDBLK
  5
127F
330
1273
100
AcDbEntity
  8
0
100
AcDbBlockEnd
  0
BLOCK
  5
1706
330
127A
100
AcDbEntity
  8
0
100
AcDbBlockBegin
  2
*U7
 70
     1
 10
0.0
 20
0.0
 30
0.0
  3
*U7
  1

  0
TEXT
  5
1707
330
127A
100
AcDbEntity
  8
DIMENSION
 62
     3
100
AcDbText
 10
109.5406091370557
 20
132.4999999999999
 30
0.0
 40
1.5
  1
59
  7
GOTHIC
100
AcDbText
  0
ENDBLK
  5
1708
330
127A
100
AcDbEntity
  8
0
100
AcDbBlockEnd
  0
BLOCK
  5
1281
330
1280
100
AcDbEntity
  8
0
100
AcDbBlockBegin
  2
*D8
 70
     1
 10
0.0
 20
0.0
 30
0.0
  3
*D8
  1

  0
LINE
  5
1282
330
1280
100
AcDbEntity
  8
DIMENSION
 62
     3
100
AcDbLine
 10
140.0
 20
114.787643318496
 30
0.0
 11
145.5
 21
114.787643318496
 31
0.0
  0
LINE
  5
1283
330
1280
100
AcDbEntity
  8
DIMENSION
 62
     3
100
AcDbLine
 10
140.0
 20
112.787643318496
 30
0.0
 11
145.5
 21
112.787643318496
 31
0.0
  0
LINE
  5
1284
330
1280
100
AcDbEntity
  8
DIMENSION
 62
     3
100
AcDbLine
 10
144.0
 20
115.787643318496
 30
0.0
 11
144.0
 21
116.787643318496
 31
0.0
  0
LINE
  5
1285
330
1280
100
AcDbEntity
  8
DIMENSION
 62
     3
100
AcDbLine
 10
144.0
 20
111.7876433184959
 30
0.0
 11
144.0
 21
110.7876433184959
 31
0.0
  0
LINE
  5
1286
330
1280
100
AcDbEntity
  8
DIMENSION
 62
     3
100
AcDbLine
 10
144.0
 20
114.787643318496
 30
0.0
 11
144.0
 21
112.787643318496
 31
0.0
  0
INSERT
  5
1287
330
1280
100
AcDbEntity
  8
DIMENSION
 62
     3
100
AcDbBlockReference
  2
_OPEN30
 10
144.0
 20
114.787643318496
 30
0.0
 50
270.0
  0
INSERT
  5
1288
330
1280
100
AcDbEntity
  8
DIMENSION
 62
     3
100
AcDbBlockReference
  2
_OPEN30
 10
144.0
 20
112.787643318496
 30
0.0
 50
90.0
  0
INSERT
  5
128A
330
1280
100
AcDbEntity
  8
0
100
AcDbBlockReference
  2
*U9
 10
0.0
 20
0.0
 30
0.0
  0
POINT
  5
128B
330
1280
100
AcDbEntity
  8
DEFPOINTS
 62
     0
100
AcDbPoint
 10
140.0
 20
114.787643318496
 30
0.0
  0
POINT
  5
128C
330
1280
100
AcDbEntity
  8
DEFPOINTS
 62
     0
100
AcDbPoint
 10
140.0
 20
112.787643318496
 30
0.0
  0
POINT
  5
128D
330
1280
100
AcDbEntity
  8
DEFPOINTS
 62
     0
100
AcDbPoint
 10
144.0
 20
112.787643318496
 30
0.0
  0
ENDBLK
  5
128E
330
1280
100
AcDbEntity
  8
0
100
AcDbBlockEnd
  0
BLOCK
  5
1709
330
1289
100
AcDbEntity
  8
0
100
AcDbBlockBegin
  2
*U9
 70
     1
 10
0.0
 20
0.0
 30
0.0
  3
*U9
  1

  0
TEXT
  5
170A
330
1289
100
AcDbEntity
  8
DIMENSION
 62
     3
100
AcDbText
 10
143.5
 20
113.307947887024
 30
0.0
 40
1.5
  1
2
 50
90.0
  7
GOTHIC
100
AcDbText
  0
ENDBLK
  5
170B
330
1289
100
AcDbEntity
  8
0
100
AcDbBlockEnd
  0
BLOCK
  5
1290
330
128F
100
AcDbEntity
  8
0
100
AcDbBlockBegin
  2
*D10
 70
     1
 10
0.0
 20
0.0
 30
0.0
  3
*D10
  1

  0
LINE
  5
1291
330
128F
100
AcDbEntity
  8
DIMENSION
 62
     3
100
AcDbLine
 10
136.4999999999999
 20
117.2876433184959
 30
0.0
 11
150.0
 21
117.2876433184959
 31
0.0
  0
LINE
  5
1292
330
128F
100
AcDbEntity
  8
DIMENSION
 62
     3
100
AcDbLine
 10
136.4999999999999
 20
110.287643318496
 30
0.0
 11
150.0
 21
110.287643318496
 31
0.0
  0
LINE
  5
1293
330
128F
100
AcDbEntity
  8
DIMENSION
 62
     3
100
AcDbLine
 10
148.5
 20
116.2876433184959
 30
0.0
 11
148.5
 21
111.287643318496
 31
0.0
  0
INSERT
  5
1294
330
128F
100
AcDbEntity
  8
DIMENSION
 62
     3
100
AcDbBlockReference
  2
_OPEN30
 10
148.5
 20
117.2876433184959
 30
0.0
 50
90.0
  0
INSERT
  5
1295
330
128F
100
AcDbEntity
  8
DIMENSION
 62
     3
100
AcDbBlockReference
  2
_OPEN30
 10
148.5
 20
110.287643318496
 30
0.0
 50
270.0
  0
INSERT
  5
1297
330
128F
100
AcDbEntity
  8
0
100
AcDbBlockReference
  2
*U11
 10
0.0
 20
0.0
 30
0.0
  0
POINT
  5
1298
330
128F
100
AcDbEntity
  8
DEFPOINTS
 62
     0
100
AcDbPoint
 10
136.4999999999999
 20
117.2876433184959
 30
0.0
  0
POINT
  5
1299
330
128F
100
AcDbEntity
  8
DEFPOINTS
 62
     0
100
AcDbPoint
 10
136.4999999999999
 20
110.287643318496
 30
0.0
  0
POINT
  5
129A
330
128F
100
AcDbEntity
  8
DEFPOINTS
 62
     0
100
AcDbPoint
 10
148.5
 20
110.287643318496
 30
0.0
  0
ENDBLK
  5
129B
330
128F
100
AcDbEntity
  8
0
100
AcDbBlockEnd
  0
BLOCK
  5
170C
330
1296
100
AcDbEntity
  8
0
100
AcDbBlockBegin
  2
*U11
 70
     1
 10
0.0
 20
0.0
 30
0.0
  3
*U11
  1

  0
TEXT
  5
170D
330
1296
100
AcDbEntity
  8
DIMENSION
 62
     3
100
AcDbText
 10
147.9999999999998
 20
113.304140780425
 30
0.0
 40
1.5
  1
7
 50
90.0
  7
GOTHIC
100
AcDbText
  0
ENDBLK
  5
170E
330
1296
100
AcDbEntity
  8
0
100
AcDbBlockEnd
  0
BLOCK
  5
129D
330
129C
100
AcDbEntity
  8
0
100
AcDbBlockBegin
  2
*D12
 70
     1
 10
0.0
 20
0.0
 30
0.0
  3
*D12
  1

  0
LINE
  5
129E
330
129C
100
AcDbEntity
  8
DIMENSION
 62
     3
100
AcDbLine
 10
124.5
 20
115.537643318496
 30
0.0
 11
124.5
 21
116.537643318496
 31
0.0
  0
LINE
  5
129F
330
129C
100
AcDbEntity
  8
DIMENSION
 62
     3
100
AcDbLine
 10
124.5
 20
112.0376433184959
 30
0.0
 11
124.5
 21
111.0376433184959
 31
0.0
  0
INSERT
  5
12A1
330
129C
100
AcDbEntity
  8
0
100
AcDbBlockReference
  2
*U13
 10
0.0
 20
0.0
 30
0.0
  0
LINE
  5
12A2
330
129C
100
AcDbEntity
  8
DIMENSION
 62
     3
100
AcDbLine
 10
124.5
 20
114.537643318496
 30
0.0
 11
124.5
 21
113.0376433184959
 31
0.0
  0
INSERT
  5
12A3
330
129C
100
AcDbEntity
  8
DIMENSION
 62
     3
100
AcDbBlockReference
  2
_OPEN30
 10
124.5
 20
114.537643318496
 30
0.0
 50
270.0
  0
INSERT
  5
12A4
330
129C
100
AcDbEntity
  8
DIMENSION
 62
     3
100
AcDbBlockReference
  2
_OPEN30
 10
124.5
 20
113.0376433184959
 30
0.0
 50
90.0
  0
POINT
  5
12A5
330
129C
100
AcDbEntity
  8
DEFPOINTS
 62
     0
100
AcDbPoint
 10
120.0
 20
114.537643318496
 30
0.0
  0
POINT
  5
12A6
330
129C
100
AcDbEntity
  8
DEFPOINTS
 62
     0
100
AcDbPoint
 10
120.0
 20
113.0376433184959
 30
0.0
  0
POINT
  5
12A7
330
129C
100
AcDbEntity
  8
DEFPOINTS
 62
     0
100
AcDbPoint
 10
124.5
 20
113.0376433184959
 30
0.0
  0
ENDBLK
  5
12A8
330
129C
100
AcDbEntity
  8
0
100
AcDbBlockEnd
  0
BLOCK
  5
170F
330
12A0
100
AcDbEntity
  8
0
100
AcDbBlockBegin
  2
*U13
 70
     1
 10
0.0
 20
0.0
 30
0.0
  3
*U13
  1

  0
TEXT
  5
1710
330
12A0
100
AcDbEntity
  8
DIMENSION
 62
     3
100
AcDbText
 10
123.9599410972113
 20
115.319645111287
 30
0.0
 40
1.5
  1
1.5
 50
90.0
  7
GOTHIC
100
AcDbText
  0
ENDBLK
  5
1711
330
12A0
100
AcDbEntity
  8
0
100
AcDbBlockEnd
  0
BLOCK
  5
12AA
330
12A9
100
AcDbEntity
  8
0
100
AcDbBlockBegin
  2
*D14
 70
     1
 10
0.0
 20
0.0
 30
0.0
  3
*D14
  1

  0
LINE
  5
12AB
330
12A9
100
AcDbEntity
  8
DIMENSION
 62
     3
100
AcDbLine
 10
81.0
 20
114.787643318496
 30
0.0
 11
75.0
 21
114.787643318496
 31
0.0
  0
LINE
  5
12AC
330
12A9
100
AcDbEntity
  8
DIMENSION
 62
     3
100
AcDbLine
 10
81.0
 20
112.787643318496
 30
0.0
 11
75.0
 21
112.787643318496
 31
0.0
  0
LINE
  5
12AD
330
12A9
100
AcDbEntity
  8
DIMENSION
 62
     3
100
AcDbLine
 10
76.5
 20
115.787643318496
 30
0.0
 11
76.5
 21
116.787643318496
 31
0.0
  0
LINE
  5
12AE
330
12A9
100
AcDbEntity
  8
DIMENSION
 62
     3
100
AcDbLine
 10
76.5
 20
111.787643318496
 30
0.0
 11
76.5
 21
110.787643318496
 31
0.0
  0
LINE
  5
12AF
330
12A9
100
AcDbEntity
  8
DIMENSION
 62
     3
100
AcDbLine
 10
76.5
 20
114.787643318496
 30
0.0
 11
76.5
 21
112.787643318496
 31
0.0
  0
INSERT
  5
12B0
330
12A9
100
AcDbEntity
  8
DIMENSION
 62
     3
100
AcDbBlockReference
  2
_OPEN30
 10
76.5
 20
114.787643318496
 30
0.0
 50
270.0
  0
INSERT
  5
12B1
330
12A9
100
AcDbEntity
  8
DIMENSION
 62
     3
100
AcDbBlockReference
  2
_OPEN30
 10
76.5
 20
112.787643318496
 30
0.0
 50
90.0
  0
INSERT
  5
12B3
330
12A9
100
AcDbEntity
  8
0
100
AcDbBlockReference
  2
*U15
 10
0.0
 20
0.0
 30
0.0
  0
POINT
  5
12B4
330
12A9
100
AcDbEntity
  8
DEFPOINTS
 62
     0
100
AcDbPoint
 10
81.0
 20
114.787643318496
 30
0.0
  0
POINT
  5
12B5
330
12A9
100
AcDbEntity
  8
DEFPOINTS
 62
     0
100
AcDbPoint
 10
81.0
 20
112.787643318496
 30
0.0
  0
POINT
  5
12B6
330
12A9
100
AcDbEntity
  8
DEFPOINTS
 62
     0
100
AcDbPoint
 10
76.5
 20
112.787643318496
 30
0.0
  0
ENDBLK
  5
12B7
330
12A9
100
AcDbEntity
  8
0
100
AcDbBlockEnd
  0
BLOCK
  5
1712
330
12B2
100
AcDbEntity
  8
0
100
AcDbBlockBegin
  2
*U15
 70
     1
 10
0.0
 20
0.0
 30
0.0
  3
*U15
  1

  0
TEXT
  5
1713
330
12B2
100
AcDbEntity
  8
DIMENSION
 62
     3
100
AcDbText
 10
75.99999999999997
 20
113.307947887024
 30
0.0
 40
1.5
  1
2
 50
90.0
  7
GOTHIC
100
AcDbText
  0
ENDBLK
  5
1714
330
12B2
100
AcDbEntity
  8
0
100
AcDbBlockEnd
  0
BLOCK
  5
12B9
330
12B8
100
AcDbEntity
  8
0
100
AcDbBlockBegin
  2
*D16
 70
     1
 10
0.0
 20
0.0
 30
0.0
  3
*D16
  1

  0
LINE
  5
12BA
330
12B8
100
AcDbEntity
  8
DIMENSION
 62
     3
100
AcDbLine
 10
105.0
 20
106.4999999999999
 30
0.0
 11
105.0
 21
100.5
 31
0.0
  0
LINE
  5
12BB
330
12B8
100
AcDbEntity
  8
DIMENSION
 62
     3
100
AcDbLine
 10
118.0
 20
108.787643318496
 30
0.0
 11
118.0
 21
100.5
 31
0.0
  0
LINE
  5
12BC
330
12B8
100
AcDbEntity
  8
DIMENSION
 62
     3
100
AcDbLine
 10
106.0
 20
102.0
 30
0.0
 11
117.0
 21
102.0
 31
0.0
  0
INSERT
  5
12BD
330
12B8
100
AcDbEntity
  8
DIMENSION
 62
     3
100
AcDbBlockReference
  2
_OPEN30
 10
105.0
 20
102.0
 30
0.0
 50
180.0
  0
INSERT
  5
12BE
330
12B8
100
AcDbEntity
  8
DIMENSION
 62
     3
100
AcDbBlockReference
  2
_OPEN30
 10
118.0
 20
102.0
 30
0.0
  0
INSERT
  5
12C0
330
12B8
100
AcDbEntity
  8
0
100
AcDbBlockReference
  2
*U17
 10
0.0
 20
0.0
 30
0.0
  0
POINT
  5
12C1
330
12B8
100
AcDbEntity
  8
DEFPOINTS
 62
     0
100
AcDbPoint
 10
105.0
 20
106.4999999999999
 30
0.0
  0
POINT
  5
12C2
330
12B8
100
AcDbEntity
  8
DEFPOINTS
 62
     0
100
AcDbPoint
 10
118.0
 20
108.787643318496
 30
0.0
  0
POINT
  5
12C3
330
12B8
100
AcDbEntity
  8
DEFPOINTS
 62
     0
100
AcDbPoint
 10
118.0
 20
102.0
 30
0.0
  0
ENDBLK
  5
12C4
330
12B8
100
AcDbEntity
  8
0
100
AcDbBlockEnd
  0
BLOCK
  5
1715
330
12BF
100
AcDbEntity
  8
0
100
AcDbBlockBegin
  2
*U17
 70
     1
 10
0.0
 20
0.0
 30
0.0
  3
*U17
  1

  0
TEXT
  5
1716
330
12BF
100
AcDbEntity
  8
DIMENSION
 62
     3
100
AcDbText
 10
110.4873096446699
 20
102.4999999999999
 30
0.0
 40
1.5
  1
13
  7
GOTHIC
100
AcDbText
  0
ENDBLK
  5
1717
330
12BF
100
AcDbEntity
  8
0
100
AcDbBlockEnd
  0
BLOCK
  5
12C6
330
12C5
100
AcDbEntity
  8
0
100
AcDbBlockBegin
  2
*D18
 70
     1
 10
0.0
 20
0.0
 30
0.0
  3
*D18
  1

  0
LINE
  5
12C7
330
12C5
100
AcDbEntity
  8
DIMENSION
 62
     3
100
AcDbLine
 10
137.0
 20
113.787643318496
 30
0.0
 11
137.0
 21
100.5
 31
0.0
  0
LINE
  5
12C8
330
12C5
100
AcDbEntity
  8
DIMENSION
 62
     3
100
AcDbLine
 10
140.0
 20
112.787643318496
 30
0.0
 11
140.0
 21
100.5
 31
0.0
  0
LINE
  5
12C9
330
12C5
100
AcDbEntity
  8
DIMENSION
 62
     3
100
AcDbLine
 10
136.0
 20
102.0
 30
0.0
 11
135.0
 21
102.0
 31
0.0
  0
LINE
  5
12CA
330
12C5
100
AcDbEntity
  8
DIMENSION
 62
     3
100
AcDbLine
 10
141.0
 20
102.0
 30
0.0
 11
142.0
 21
102.0
 31
0.0
  0
LINE
  5
12CB
330
12C5
100
AcDbEntity
  8
DIMENSION
 62
     3
100
AcDbLine
 10
137.0
 20
102.0
 30
0.0
 11
140.0
 21
102.0
 31
0.0
  0
INSERT
  5
12CC
330
12C5
100
AcDbEntity
  8
DIMENSION
 62
     3
100
AcDbBlockReference
  2
_OPEN30
 10
137.0
 20
102.0
 30
0.0
  0
INSERT
  5
12CD
330
12C5
100
AcDbEntity
  8
DIMENSION
 62
     3
100
AcDbBlockReference
  2
_OPEN30
 10
140.0
 20
102.0
 30
0.0
 50
180.0
  0
INSERT
  5
12CF
330
12C5
100
AcDbEntity
  8
0
100
AcDbBlockReference
  2
*U19
 10
0.0
 20
0.0
 30
0.0
  0
POINT
  5
12D0
330
12C5
100
AcDbEntity
  8
DEFPOINTS
 62
     0
100
AcDbPoint
 10
137.0
 20
113.787643318496
 30
0.0
  0
POINT
  5
12D1
330
12C5
100
AcDbEntity
  8
DEFPOINTS
 62
     0
100
AcDbPoint
 10
140.0
 20
112.787643318496
 30
0.0
  0
POINT
  5
12D2
330
12C5
100
AcDbEntity
  8
DEFPOINTS
 62
     0
100
AcDbPoint
 10
140.0
 20
102.0
 30
0.0
  0
ENDBLK
  5
12D3
330
12C5
100
AcDbEntity
  8
0
100
AcDbBlockEnd
  0
BLOCK
  5
1718
330
12CE
100
AcDbEntity
  8
0
100
AcDbBlockBegin
  2
*U19
 70
     1
 10
0.0
 20
0.0
 30
0.0
  3
*U19
  1

  0
TEXT
  5
1719
330
12CE
100
AcDbEntity
  8
DIMENSION
 62
     3
100
AcDbText
 10
138.0279187817258
 20
102.4999999999999
 30
0.0
 40
1.5
  1
3
  7
GOTHIC
100
AcDbText
  0
ENDBLK
  5
171A
330
12CE
100
AcDbEntity
  8
0
100
AcDbBlockEnd
  0
BLOCK
  5
12D5
330
12D4
100
AcDbEntity
  8
0
100
AcDbBlockBegin
  2
*D20
 70
     1
 10
0.0
 20
0.0
 30
0.0
  3
*D20
  1

  0
LINE
  5
12D6
330
12D4
100
AcDbEntity
  8
DIMENSION
 62
     3
100
AcDbLine
 10
91.49999999999996
 20
118.2876433184959
 30
0.0
 11
92.60894904286164
 21
116.6232419184915
 31
0.0
  0
INSERT
  5
12D7
330
12D4
100
AcDbEntity
  8
DIMENSION
 62
     3
100
AcDbBlockReference
  2
_OPEN30
 10
93.16342356429244
 20
115.7910412184895
 30
0.0
 50
303.6745287482016
  0
INSERT
  5
12D9
330
12D4
100
AcDbEntity
  8
0
100
AcDbBlockReference
  2
*U21
 10
0.0
 20
0.0
 30
0.0
  0
POINT
  5
12DA
330
12D4
100
AcDbEntity
  8
DEFPOINTS
 62
     0
100
AcDbPoint
 10
93.16342356429244
 20
115.7910412184895
 30
0.0
  0
POINT
  5
12DB
330
12D4
100
AcDbEntity
  8
DEFPOINTS
 62
     0
100
AcDbPoint
 10
91.49999999999996
 20
118.2876433184959
 30
0.0
  0
ENDBLK
  5
12DC
330
12D4
100
AcDbEntity
  8
0
100
AcDbBlockEnd
  0
BLOCK
  5
171B
330
12D8
100
AcDbEntity
  8
0
100
AcDbBlockBegin
  2
*U21
 70
     1
 10
0.0
 20
0.0
 30
0.0
  3
*U21
  1

  0
TEXT
  5
171C
330
12D8
100
AcDbEntity
  8
DIMENSION
 62
     3
100
AcDbText
 10
91.99656674235262
 20
118.4441100379992
 30
0.0
 40
1.5
  1
R3
 50
303.6745287482016
  7
GOTHIC
100
AcDbText
  0
ENDBLK
  5
171D
330
12D8
100
AcDbEntity
  8
0
100
AcDbBlockEnd
  0
BLOCK
  5
12DE
330
12DD
100
AcDbEntity
  8
0
100
AcDbBlockBegin
  2
*D22
 70
     1
 10
0.0
 20
0.0
 30
0.0
  3
*D22
  1

  0
LINE
  5
12DF
330
12DD
100
AcDbEntity
  8
DIMENSION
 62
     3
100
AcDbLine
 10
90.00000000000005
 20
114.287643318496
 30
0.0
 11
90.00000000000005
 21
113.287643318496
 31
0.0
  0
LINE
  5
12E0
330
12DD
100
AcDbEntity
  8
DIMENSION
 62
     3
100
AcDbLine
 10
90.00000000000005
 20
118.1500591605533
 30
0.0
 11
90.00000000000005
 21
115.287643318496
 31
0.0
  0
INSERT
  5
12E2
330
12DD
100
AcDbEntity
  8
0
100
AcDbBlockReference
  2
*U23
 10
0.0
 20
0.0
 30
0.0
  0
INSERT
  5
12E3
330
12DD
100
AcDbEntity
  8
DIMENSION
 62
     3
100
AcDbBlockReference
  2
_OPEN30
 10
90.00000000000005
 20
115.287643318496
 30
0.0
 50
90.0
  0
INSERT
  5
12E4
330
12DD
100
AcDbEntity
  8
DIMENSION
 62
     3
100
AcDbBlockReference
  2
_OPEN30
 10
90.00000000000005
 20
112.2876433184959
 30
0.0
 50
270.0
  0
POINT
  5
12E5
330
12DD
100
AcDbEntity
  8
DEFPOINTS
 62
     0
100
AcDbPoint
 10
81.6134712589865
 20
115.287643318496
 30
0.0
  0
POINT
  5
12E6
330
12DD
100
AcDbEntity
  8
DEFPOINTS
 62
     0
100
AcDbPoint
 10
81.61347125898648
 20
112.2876433184959
 30
0.0
  0
POINT
  5
12E7
330
12DD
100
AcDbEntity
  8
DEFPOINTS
 62
     0
100
AcDbPoint
 10
90.00000000000005
 20
112.2876433184959
 30
0.0
  0
ENDBLK
  5
12E8
330
12DD
100
AcDbEntity
  8
0
100
AcDbBlockEnd
  0
BLOCK
  5
171E
330
12E1
100
AcDbEntity
  8
0
100
AcDbBlockBegin
  2
*U23
 70
     1
 10
0.0
 20
0.0
 30
0.0
  3
*U23
  1

  0
TEXT
  5
171F
330
12E1
100
AcDbEntity
  8
DIMENSION
 62
     3
100
AcDbText
 10
89.50000000000001
 20
116.7896530691827
 30
0.0
 40
1.5
  1
3
 50
90.0
  7
GOTHIC
100
AcDbText
  0
ENDBLK
  5
1720
330
12E1
100
AcDbEntity
  8
0
100
AcDbBlockEnd
  0
BLOCK
  5
12EA
330
12E9
100
AcDbEntity
  8
0
100
AcDbBlockBegin
  2
*D24
 70
     1
 10
0.0
 20
0.0
 30
0.0
  3
*D24
  1

  0
LINE
  5
12EB
330
12E9
100
AcDbEntity
  8
DIMENSION
 62
     3
100
AcDbLine
 10
97.63878406783227
 20
118.037643318496
 30
0.0
 11
90.01006573271018
 21
104.8243155654324
 31
0.0
  0
LINE
  5
12EC
330
12E9
100
AcDbEntity
  8
DIMENSION
 62
     3
100
AcDbLine
 10
112.3612159321677
 20
109.537643318496
 30
0.0
 11
104.7324975970455
 21
96.32431556543238
 31
0.0
  0
LINE
  5
12ED
330
12E9
100
AcDbEntity
  8
DIMENSION
 62
     3
100
AcDbLine
 10
91.62609113649459
 20
105.623353671109
 30
0.0
 11
104.616472193261
 21
98.12335367110904
 31
0.0
  0
INSERT
  5
12EE
330
12E9
100
AcDbEntity
  8
DIMENSION
 62
     3
100
AcDbBlockReference
  2
_OPEN30
 10
90.76006573271014
 20
106.123353671109
 30
0.0
 50
149.9999999999998
  0
INSERT
  5
12EF
330
12E9
100
AcDbEntity
  8
DIMENSION
 62
     3
100
AcDbBlockReference
  2
_OPEN30
 10
105.4824975970455
 20
97.62335367110905
 30
0.0
 50
329.9999999999997
  0
INSERT
  5
12F1
330
12E9
100
AcDbEntity
  8
0
100
AcDbBlockReference
  2
*U25
 10
0.0
 20
0.0
 30
0.0
  0
POINT
  5
12F2
330
12E9
100
AcDbEntity
  8
DEFPOINTS
 62
     0
100
AcDbPoint
 10
97.63878406783227
 20
118.037643318496
 30
0.0
  0
POINT
  5
12F3
330
12E9
100
AcDbEntity
  8
DEFPOINTS
 62
     0
100
AcDbPoint
 10
112.3612159321677
 20
109.537643318496
 30
0.0
  0
POINT
  5
12F4
330
12E9
100
AcDbEntity
  8
DEFPOINTS
 62
     0
100
AcDbPoint
 10
105.4824975970455
 20
97.62335367110905
 30
0.0
  0
ENDBLK
  5
12F5
330
12E9
100
AcDbEntity
  8
0
100
AcDbBlockEnd
  0
BLOCK
  5
1721
330
12F0
100
AcDbEntity
  8
0
100
AcDbBlockBegin
  2
*U25
 70
     1
 10
0.0
 20
0.0
 30
0.0
  3
*U25
  1

  0
TEXT
  5
1722
330
12F0
100
AcDbEntity
  8
DIMENSION
 62
     3
100
AcDbText
 10
96.68962216283441
 20
103.5586212937202
 30
0.0
 40
1.5
  1
φ17
 50
329.9999999999997
  7
GOTHIC
100
AcDbText
  0
ENDBLK
  5
1723
330
12F0
100
AcDbEntity
  8
0
100
AcDbBlockEnd
  0
BLOCK
  5
12F7
330
12F6
100
AcDbEntity
  8
0
100
AcDbBlockBegin
  2
*D26
 70
     1
 10
0.0
 20
0.0
 30
0.0
  3
*D26
  1

  0
LINE
  5
12F8
330
12F6
100
AcDbEntity
  8
DIMENSION
 62
     3
100
AcDbLine
 10
94.50000000000001
 20
119.537643318496
 30
0.0
 11
94.50000000000001
 21
124.5
 31
0.0
  0
LINE
  5
12F9
330
12F6
100
AcDbEntity
  8
DIMENSION
 62
     3
100
AcDbLine
 10
82.0
 20
123.0
 30
0.0
 11
93.49999999999999
 21
123.0
 31
0.0
  0
INSERT
  5
12FA
330
12F6
100
AcDbEntity
  8
DIMENSION
 62
     3
100
AcDbBlockReference
  2
_OPEN30
 10
81.0
 20
123.0
 30
0.0
 50
180.0
  0
INSERT
  5
12FB
330
12F6
100
AcDbEntity
  8
DIMENSION
 62
     3
100
AcDbBlockReference
  2
_OPEN30
 10
94.50000000000001
 20
123.0
 30
0.0
  0
INSERT
  5
12FD
330
12F6
100
AcDbEntity
  8
0
100
AcDbBlockReference
  2
*U27
 10
0.0
 20
0.0
 30
0.0
  0
POINT
  5
12FE
330
12F6
100
AcDbEntity
  8
DEFPOINTS
 62
     0
100
AcDbPoint
 10
81.0
 20
114.787643318496
 30
0.0
  0
POINT
  5
12FF
330
12F6
100
AcDbEntity
  8
DEFPOINTS
 62
     0
100
AcDbPoint
 10
94.50000000000001
 20
119.537643318496
 30
0.0
  0
POINT
  5
1300
330
12F6
100
AcDbEntity
  8
DEFPOINTS
 62
     0
100
AcDbPoint
 10
94.50000000000001
 20
123.0
 30
0.0
  0
ENDBLK
  5
1301
330
12F6
100
AcDbEntity
  8
0
100
AcDbBlockEnd
  0
BLOCK
  5
1724
330
12FC
100
AcDbEntity
  8
0
100
AcDbBlockBegin
  2
*U27
 70
     1
 10
0.0
 20
0.0
 30
0.0
  3
*U27
  1

  0
TEXT
  5
1725
330
12FC
100
AcDbEntity
  8
DIMENSION
 62
     3
100
AcDbText
 10
85.76269035532995
 20
123.5
 30
0.0
 40
1.5
  1
13.5
  7
GOTHIC
100
AcDbText
  0
ENDBLK
  5
1726
330
12FC
100
AcDbEntity
  8
0
100
AcDbBlockEnd
  0
BLOCK
  5
1303
330
1302
100
AcDbEntity
  8
0
100
AcDbBlockBegin
  2
*D28
 70
     1
 10
0.0
 20
0.0
 30
0.0
  3
*D28
  1

  0
LINE
  5
1304
330
1302
100
AcDbEntity
  8
DIMENSION
 62
     3
100
AcDbLine
 10
94.50000000000001
 20
119.537643318496
 30
0.0
 11
94.50000000000001
 21
124.5
 31
0.0
  0
LINE
  5
1305
330
1302
100
AcDbEntity
  8
DIMENSION
 62
     3
100
AcDbLine
 10
95.5
 20
123.0
 30
0.0
 11
104.0
 21
123.0
 31
0.0
  0
INSERT
  5
1306
330
1302
100
AcDbEntity
  8
DIMENSION
 62
     3
100
AcDbBlockReference
  2
_OPEN30
 10
94.50000000000001
 20
123.0
 30
0.0
 50
180.0
  0
INSERT
  5
1307
330
1302
100
AcDbEntity
  8
DIMENSION
 62
     3
100
AcDbBlockReference
  2
_OPEN30
 10
105.0
 20
123.0
 30
0.0
  0
INSERT
  5
1309
330
1302
100
AcDbEntity
  8
0
100
AcDbBlockReference
  2
*U29
 10
0.0
 20
0.0
 30
0.0
  0
POINT
  5
130A
330
1302
100
AcDbEntity
  8
DEFPOINTS
 62
     0
100
AcDbPoint
 10
94.50000000000001
 20
119.537643318496
 30
0.0
  0
POINT
  5
130B
330
1302
100
AcDbEntity
  8
DEFPOINTS
 62
     0
100
AcDbPoint
 10
105.0
 20
121.232606342322
 30
0.0
  0
POINT
  5
130C
330
1302
100
AcDbEntity
  8
DEFPOINTS
 62
     0
100
AcDbPoint
 10
105.0
 20
123.0
 30
0.0
  0
ENDBLK
  5
130D
330
1302
100
AcDbEntity
  8
0
100
AcDbBlockEnd
  0
BLOCK
  5
1727
330
1308
100
AcDbEntity
  8
0
100
AcDbBlockBegin
  2
*U29
 70
     1
 10
0.0
 20
0.0
 30
0.0
  3
*U29
  1

  0
TEXT
  5
1728
330
1308
100
AcDbEntity
  8
DIMENSION
 62
     3
100
AcDbText
 10
97.76269035532996
 20
123.5
 30
0.0
 40
1.5
  1
10.5
  7
GOTHIC
100
AcDbText
  0
ENDBLK
  5
1729
330
1308
100
AcDbEntity
  8
0
100
AcDbBlockEnd
  0
BLOCK
  5
130F
330
130E
100
AcDbEntity
  8
0
100
AcDbBlockBegin
  2
*D30
 70
     1
 10
0.0
 20
0.0
 30
0.0
  3
*D30
  1

  0
LINE
  5
1310
330
130E
100
AcDbEntity
  8
DIMENSION
 62
     3
100
AcDbLine
 10
113.0
 20
119.537643318496
 30
0.0
 11
113.0
 21
124.5
 31
0.0
  0
LINE
  5
1311
330
130E
100
AcDbEntity
  8
DIMENSION
 62
     3
100
AcDbLine
 10
106.0
 20
123.0
 30
0.0
 11
112.0
 21
123.0
 31
0.0
  0
INSERT
  5
1312
330
130E
100
AcDbEntity
  8
DIMENSION
 62
     3
100
AcDbBlockReference
  2
_OPEN30
 10
105.0
 20
123.0
 30
0.0
 50
180.0
  0
INSERT
  5
1313
330
130E
100
AcDbEntity
  8
DIMENSION
 62
     3
100
AcDbBlockReference
  2
_OPEN30
 10
113.0
 20
123.0
 30
0.0
  0
INSERT
  5
1315
330
130E
100
AcDbEntity
  8
0
100
AcDbBlockReference
  2
*U31
 10
0.0
 20
0.0
 30
0.0
  0
POINT
  5
1316
330
130E
100
AcDbEntity
  8
DEFPOINTS
 62
     0
100
AcDbPoint
 10
105.0
 20
121.232606342322
 30
0.0
  0
POINT
  5
1317
330
130E
100
AcDbEntity
  8
DEFPOINTS
 62
     0
100
AcDbPoint
 10
113.0
 20
119.537643318496
 30
0.0
  0
POINT
  5
1318
330
130E
100
AcDbEntity
  8
DEFPOINTS
 62
     0
100
AcDbPoint
 10
113.0
 20
123.0
 30
0.0
  0
ENDBLK
  5
1319
330
130E
100
AcDbEntity
  8
0
100
AcDbBlockEnd
  0
BLOCK
  5
172A
330
1314
100
AcDbEntity
  8
0
100
AcDbBlockBegin
  2
*U31
 70
     1
 10
0.0
 20
0.0
 30
0.0
  3
*U31
  1

  0
TEXT
  5
172B
330
1314
100
AcDbEntity
  8
DIMENSION
 62
     3
100
AcDbText
 10
108.5203045685279
 20
123.5
 30
0.0
 40
1.5
  1
8
  7
GOTHIC
100
AcDbText
  0
ENDBLK
  5
172C
330
1314
100
AcDbEntity
  8
0
100
AcDbBlockEnd
  0
BLOCK
  5
131B
330
131A
100
AcDbEntity
  8
0
100
AcDbBlockBegin
  2
*D32
 70
     1
 10
0.0
 20
0.0
 30
0.0
  3
*D32
  1

  0
LINE
  5
131C
330
131A
100
AcDbEntity
  8
DIMENSION
 62
     3
100
AcDbLine
 10
113.0
 20
119.537643318496
 30
0.0
 11
113.0
 21
124.5
 31
0.0
  0
LINE
  5
131D
330
131A
100
AcDbEntity
  8
DIMENSION
 62
     3
100
AcDbLine
 10
136.4999999999999
 20
117.287643318496
 30
0.0
 11
136.4999999999999
 21
124.5
 31
0.0
  0
LINE
  5
131E
330
131A
100
AcDbEntity
  8
DIMENSION
 62
     3
100
AcDbLine
 10
114.0
 20
123.0
 30
0.0
 11
135.4999999999999
 21
123.0
 31
0.0
  0
INSERT
  5
131F
330
131A
100
AcDbEntity
  8
DIMENSION
 62
     3
100
AcDbBlockReference
  2
_OPEN30
 10
113.0
 20
123.0
 30
0.0
 50
180.0
  0
INSERT
  5
1320
330
131A
100
AcDbEntity
  8
DIMENSION
 62
     3
100
AcDbBlockReference
  2
_OPEN30
 10
136.4999999999999
 20
123.0
 30
0.0
  0
INSERT
  5
1322
330
131A
100
AcDbEntity
  8
0
100
AcDbBlockReference
  2
*U33
 10
0.0
 20
0.0
 30
0.0
  0
POINT
  5
1323
330
131A
100
AcDbEntity
  8
DEFPOINTS
 62
     0
100
AcDbPoint
 10
113.0
 20
119.537643318496
 30
0.0
  0
POINT
  5
1324
330
131A
100
AcDbEntity
  8
DEFPOINTS
 62
     0
100
AcDbPoint
 10
136.4999999999999
 20
117.287643318496
 30
0.0
  0
POINT
  5
1325
330
131A
100
AcDbEntity
  8
DEFPOINTS
 62
     0
100
AcDbPoint
 10
136.4999999999999
 20
123.0
 30
0.0
  0
ENDBLK
  5
1326
330
131A
100
AcDbEntity
  8
0
100
AcDbBlockEnd
  0
BLOCK
  5
172D
330
1321
100
AcDbEntity
  8
0
100
AcDbBlockBegin
  2
*U33
 70
     1
 10
0.0
 20
0.0
 30
0.0
  3
*U33
  1

  0
TEXT
  5
172E
330
1321
100
AcDbEntity
  8
DIMENSION
 62
     3
100
AcDbText
 10
122.8121827411166
 20
123.5
 30
0.0
 40
1.5
  1
23.5
  7
GOTHIC
100
AcDbText
  0
ENDBLK
  5
172F
330
1321
100
AcDbEntity
  8
0
100
AcDbBlockEnd
  0
BLOCK
  5
1328
330
1327
100
AcDbEntity
  8
0
100
AcDbBlockBegin
  2
*D34
 70
     1
 10
0.0
 20
0.0
 30
0.0
  3
*D34
  1

  0
LINE
  5
1329
330
1327
100
AcDbEntity
  8
DIMENSION
 62
     3
100
AcDbLine
 10
136.4999999999999
 20
117.2876433184959
 30
0.0
 11
136.4999999999999
 21
124.5
 31
0.0
  0
LINE
  5
132A
330
1327
100
AcDbEntity
  8
DIMENSION
 62
     3
100
AcDbLine
 10
137.5
 20
123.0
 30
0.0
 11
139.0
 21
123.0
 31
0.0
  0
INSERT
  5
132C
330
1327
100
AcDbEntity
  8
0
100
AcDbBlockReference
  2
*U35
 10
0.0
 20
0.0
 30
0.0
  0
INSERT
  5
132D
330
1327
100
AcDbEntity
  8
DIMENSION
 62
     3
100
AcDbBlockReference
  2
_OPEN30
 10
136.4999999999999
 20
123.0
 30
0.0
 50
180.0
  0
INSERT
  5
132E
330
1327
100
AcDbEntity
  8
DIMENSION
 62
     3
100
AcDbBlockReference
  2
_OPEN30
 10
140.0
 20
123.0
 30
0.0
  0
POINT
  5
132F
330
1327
100
AcDbEntity
  8
DEFPOINTS
 62
     0
100
AcDbPoint
 10
136.4999999999999
 20
117.2876433184959
 30
0.0
  0
POINT
  5
1330
330
1327
100
AcDbEntity
  8
DEFPOINTS
 62
     0
100
AcDbPoint
 10
140.0
 20
114.787643318496
 30
0.0
  0
POINT
  5
1331
330
1327
100
AcDbEntity
  8
DEFPOINTS
 62
     0
100
AcDbPoint
 10
140.0
 20
123.0
 30
0.0
  0
ENDBLK
  5
1332
330
1327
100
AcDbEntity
  8
0
100
AcDbBlockEnd
  0
BLOCK
  5
1730
330
132B
100
AcDbEntity
  8
0
100
AcDbBlockBegin
  2
*U35
 70
     1
 10
0.0
 20
0.0
 30
0.0
  3
*U35
  1

  0
TEXT
  5
1731
330
132B
100
AcDbEntity
  8
DIMENSION
 62
     3
100
AcDbText
 10
136.8023226007426
 20
123.4998212334367
 30
0.0
 40
1.5
  1
3.5
  7
GOTHIC
100
AcDbText
  0
ENDBLK
  5
1732
330
132B
100
AcDbEntity
  8
0
100
AcDbBlockEnd
  0
BLOCK
  5
1334
330
1333
100
AcDbEntity
  8
0
100
AcDbBlockBegin
  2
*D36
 70
     1
 10
0.0
 20
0.0
 30
0.0
  3
*D36
  1

  0
LINE
  5
1335
330
1333
100
AcDbEntity
  8
DIMENSION
 62
     3
100
AcDbLine
 10
105.0
 20
121.232606342322
 30
0.0
 11
105.0
 21
129.0
 31
0.0
  0
LINE
  5
1336
330
1333
100
AcDbEntity
  8
DIMENSION
 62
     3
100
AcDbLine
 10
82.0
 20
127.5
 30
0.0
 11
104.0
 21
127.5
 31
0.0
  0
INSERT
  5
1337
330
1333
100
AcDbEntity
  8
DIMENSION
 62
     3
100
AcDbBlockReference
  2
_OPEN30
 10
81.0
 20
127.5
 30
0.0
 50
180.0
  0
INSERT
  5
1338
330
1333
100
AcDbEntity
  8
DIMENSION
 62
     3
100
AcDbBlockReference
  2
_OPEN30
 10
105.0
 20
127.5
 30
0.0
  0
INSERT
  5
133A
330
1333
100
AcDbEntity
  8
0
100
AcDbBlockReference
  2
*U37
 10
0.0
 20
0.0
 30
0.0
  0
POINT
  5
133B
330
1333
100
AcDbEntity
  8
DEFPOINTS
 62
     0
100
AcDbPoint
 10
81.0
 20
114.787643318496
 30
0.0
  0
POINT
  5
133C
330
1333
100
AcDbEntity
  8
DEFPOINTS
 62
     0
100
AcDbPoint
 10
105.0
 20
121.232606342322
 30
0.0
  0
POINT
  5
133D
330
1333
100
AcDbEntity
  8
DEFPOINTS
 62
     0
100
AcDbPoint
 10
105.0
 20
127.5
 30
0.0
  0
ENDBLK
  5
133E
330
1333
100
AcDbEntity
  8
0
100
AcDbBlockEnd
  0
BLOCK
  5
1733
330
1339
100
AcDbEntity
  8
0
100
AcDbBlockBegin
  2
*U37
 70
     1
 10
0.0
 20
0.0
 30
0.0
  3
*U37
  1

  0
TEXT
  5
1734
330
1339
100
AcDbEntity
  8
DIMENSION
 62
     3
100
AcDbText
 10
92.01395939086292
 20
128.0
 30
0.0
 40
1.5
  1
24
  7
GOTHIC
100
AcDbText
  0
ENDBLK
  5
1735
330
1339
100
AcDbEntity
  8
0
100
AcDbBlockEnd
  0
BLOCK
  5
1340
330
133F
100
AcDbEntity
  8
0
100
AcDbBlockBegin
  2
*D38
 70
     1
 10
0.0
 20
0.0
 30
0.0
  3
*D38
  1

  0
LINE
  5
1341
330
133F
100
AcDbEntity
  8
DIMENSION
 62
     3
100
AcDbLine
 10
106.0
 20
127.5
 30
0.0
 11
139.0
 21
127.5
 31
0.0
  0
INSERT
  5
1342
330
133F
100
AcDbEntity
  8
DIMENSION
 62
     3
100
AcDbBlockReference
  2
_OPEN30
 10
105.0
 20
127.5
 30
0.0
 50
180.0
  0
INSERT
  5
1343
330
133F
100
AcDbEntity
  8
DIMENSION
 62
     3
100
AcDbBlockReference
  2
_OPEN30
 10
140.0
 20
127.5
 30
0.0
  0
INSERT
  5
1345
330
133F
100
AcDbEntity
  8
0
100
AcDbBlockReference
  2
*U39
 10
0.0
 20
0.0
 30
0.0
  0
POINT
  5
1346
330
133F
100
AcDbEntity
  8
DEFPOINTS
 62
     0
100
AcDbPoint
 10
105.0
 20
121.232606342322
 30
0.0
  0
POINT
  5
1347
330
133F
100
AcDbEntity
  8
DEFPOINTS
 62
     0
100
AcDbPoint
 10
140.0
 20
114.787643318496
 30
0.0
  0
POINT
  5
1348
330
133F
100
AcDbEntity
  8
DEFPOINTS
 62
     0
100
AcDbPoint
 10
140.0
 20
127.5
 30
0.0
  0
ENDBLK
  5
1349
330
133F
100
AcDbEntity
  8
0
100
AcDbBlockEnd
  0
BLOCK
  5
1736
330
1344
100
AcDbEntity
  8
0
100
AcDbBlockBegin
  2
*U39
 70
     1
 10
0.0
 20
0.0
 30
0.0
  3
*U39
  1

  0
TEXT
  5
1737
330
1344
100
AcDbEntity
  8
DIMENSION
 62
     3
100
AcDbText
 10
121.5406091370557
 20
128.0
 30
0.0
 40
1.5
  1
35
  7
GOTHIC
100
AcDbText
  0
ENDBLK
  5
1738
330
1344
100
AcDbEntity
  8
0
100
AcDbBlockEnd
  0
BLOCK
  5
134B
330
134A
100
AcDbEntity
  8
0
100
AcDbBlockBegin
  2
*D40
 70
     1
 10
0.0
 20
0.0
 30
0.0
  3
*D40
  1

  0
LINE
  5
134C
330
134A
100
AcDbEntity
  8
DIMENSION
 62
     3
100
AcDbLine
 10
135.411969302148
 20
113.1971893630485
 30
0.0
 11
136.3659882277401
 21
111.4393930467449
 31
0.0
  0
LINE
  5
134D
330
134A
100
AcDbEntity
  8
DIMENSION
 62
     3
100
AcDbLine
 10
136.842997690536
 20
110.5604948885929
 30
0.0
 11
140.6747859166461
 21
103.5003590275217
 31
0.0
  0
LINE
  5
134E
330
134A
100
AcDbEntity
  8
DIMENSION
 62
     3
100
AcDbLine
 10
140.6747859166461
 20
103.5003590275217
 30
0.0
 11
142.9184407389811
 21
103.5003590275217
 31
0.0
  0
INSERT
  5
134F
330
134A
100
AcDbEntity
  8
DIMENSION
 62
     3
100
AcDbBlockReference
  2
_OPEN30
 10
136.842997690536
 20
110.5604948885929
 30
0.0
 50
298.4902667802068
  0
INSERT
  5
1351
330
134A
100
AcDbEntity
  8
0
100
AcDbBlockReference
  2
*U41
 10
0.0
 20
0.0
 30
0.0
  0
POINT
  5
1352
330
134A
100
AcDbEntity
  8
DEFPOINTS
 62
     0
100
AcDbPoint
 10
136.842997690536
 20
110.5604948885929
 30
0.0
  0
POINT
  5
1353
330
134A
100
AcDbEntity
  8
DEFPOINTS
 62
     0
100
AcDbPoint
 10
135.411969302148
 20
113.1971893630485
 30
0.0
  0
ENDBLK
  5
1354
330
134A
100
AcDbEntity
  8
0
100
AcDbBlockEnd
  0
BLOCK
  5
1739
330
1350
100
AcDbEntity
  8
0
100
AcDbBlockBegin
  2
*U41
 70
     1
 10
0.0
 20
0.0
 30
0.0
  3
*U41
  1

  0
TEXT
  5
173A
330
1350
100
AcDbEntity
  8
DIMENSION
 62
     3
100
AcDbText
 10
141.0834153582706
 20
104.0003590275218
 30
0.0
 40
1.5
  1
R3
  7
GOTHIC
100
AcDbText
  0
ENDBLK
  5
173B
330
1350
100
AcDbEntity
  8
0
100
AcDbBlockEnd
  0
BLOCK
  5
1356
330
1355
100
AcDbEntity
  8
0
100
AcDbBlockBegin
  2
A$C3D9D1D5D
 70
     0
 10
0.0
 20
0.0
 30
0.0
  3
A$C3D9D1D5D
  1

  0
LINE
  5
1357
330
1355
100
AcDbEntity
  8
CENTER
100
AcDbLine
 10
0.0
 20
7.366303171161006
 30
0.0
 11
0.0
 21
-7.366303171161006
 31
0.0
  0
ARC
  5
1358
330
1355
100
AcDbEntity
  8
LINE
  6
BYBLOCK
100
AcDbCircle
 10
0.0
 20
-0.0786598526649414
 30
0.0
 40
8.5
100
AcDbArc
 50
317.4315457967069
 51
0.0
  0
LINE
  5
1359
330
1355
100
AcDbEntity
  8
LINE
100
AcDbLine
 10
-11.0
 20
-0.0786598526649414
 30
0.0
 11
-11.0
 21
-0.0786598526649414
 31
0.0
  0
LINE
  5
135A
330
1355
100
AcDbEntity
  8
LINE
100
AcDbLine
 10
-10.5
 20
-0.5786598526649414
 30
0.0
 11
-9.0
 21
-0.5786598526649414
 31
0.0
  0
LINE
  5
135B
330
1355
100
AcDbEntity
  8
LINE
100
AcDbLine
 10
-8.5
 20
-0.0786598526649414
 30
0.0
 11
-8.5
 21
-0.0786598526649414
 31
0.0
  0
ARC
  5
135C
330
1355
100
AcDbEntity
  8
LINE
100
AcDbCircle
 10
-9.0
 20
-0.0786598526649414
 30
0.0
 40
0.5
100
AcDbArc
 50
270.0
 51
0.0
  0
ARC
  5
135D
330
1355
100
AcDbEntity
  8
LINE
100
AcDbCircle
 10
-10.5
 20
-0.0786598526649414
 30
0.0
 40
0.5
100
AcDbArc
 50
180.0
 51
270.0
  0
ARC
  5
135E
330
1355
100
AcDbEntity
  8
LINE
100
AcDbCircle
 10
-10.5
 20
-0.0786598526649414
 30
0.0
 40
0.5
100
AcDbArc
 50
90.0
 51
180.0
  0
ARC
  5
135F
330
1355
100
AcDbEntity
  8
LINE
100
AcDbCircle
 10
-9.0
 20
-0.0786598526649414
 30
0.0
 40
0.5
100
AcDbArc
 50
0.0
 51
90.0
  0
LINE
  5
1360
330
1355
100
AcDbEntity
  8
LINE
100
AcDbLine
 10
-8.5
 20
-0.0786598526649414
 30
0.0
 11
-8.5
 21
-0.0786598526649414
 31
0.0
  0
LINE
  5
1361
330
1355
100
AcDbEntity
  8
LINE
100
AcDbLine
 10
-10.5
 20
0.4213401473350588
 30
0.0
 11
-9.0
 21
0.4213401473350588
 31
0.0
  0
LINE
  5
1362
330
1355
100
AcDbEntity
  8
LINE
100
AcDbLine
 10
-11.0
 20
-0.0786598526649414
 30
0.0
 11
-11.0
 21
-0.0786598526649414
 31
0.0
  0
LINE
  5
1363
330
1355
100
AcDbEntity
  8
CENTER
100
AcDbLine
 10
13.0
 20
-0.0786598526649414
 30
0.0
 11
13.0
 21
4.921340147335057
 31
0.0
  0
ARC
  5
1364
330
1355
100
AcDbEntity
  8
LINE
  6
BYBLOCK
100
AcDbCircle
 10
0.0
 20
-0.0786598526649414
 30
0.0
 40
9.0
100
AcDbArc
 50
320.2909834469317
 51
354.6317953008377
  0
CIRCLE
  5
1365
330
1355
100
AcDbEntity
  8
LINE
  6
BYBLOCK
100
AcDbCircle
 10
0.0
 20
-0.0786598526649414
 30
0.0
 40
2.049999999999998
  0
ARC
  5
1366
330
1355
100
AcDbEntity
  8
LINE
  6
BYBLOCK
100
AcDbCircle
 10
0.0
 20
-0.0786598526649414
 30
0.0
 40
9.0
100
AcDbArc
 50
140.2909834469317
 51
176.8164916468281
  0
ARC
  5
1367
330
1355
100
AcDbEntity
  8
LINE
  6
BYBLOCK
100
AcDbCircle
 10
0.0
 20
-0.0786598526649414
 30
0.0
 40
8.5
100
AcDbArc
 50
137.4315457967064
 51
180.0
  0
LINE
  5
1368
330
1355
100
AcDbEntity
  8
CENTER
100
AcDbLine
 10
-11.0
 20
-0.0786598526649129
 30
0.0
 11
32.0
 21
-0.078659852664984
 31
0.0
  0
LINE
  5
1369
330
1355
100
AcDbEntity
  8
LINE
100
AcDbLine
 10
-23.0
 20
-0.0786598526649272
 30
0.0
 11
-11.0
 21
-0.0786598526649414
 31
0.0
  0
DIMENSION
  5
136A
330
1355
100
AcDbEntity
  8
DIMENSION
100
AcDbDimension
  2
*D4
 10
-0.9232334628124904
 20
-19.67774711750379
 30
0.0
 11
-8.031548391288652
 21
-13.98970972982485
 31
0.0
 12
-105.0
 22
-113.866303171161
 32
0.0
 70
     1
  1
φ18
  3
VESSEL_ENGINEERING_ORIGINA
100
AcDbAlignedDimension
 13
-7.794228634059934
 23
4.421340147335087
 33
0.0
 14
7.794228634059934
 24
-4.578659852664968
 34
0.0
  0
LINE
  5
136B
330
1355
100
AcDbEntity
  8
HIDDEN
100
AcDbLine
 10
11.0
 20
0.6713401473351013
 30
0.0
 11
11.0
 21
3.421340147335058
 31
0.0
  0
LINE
  5
136C
330
1355
100
AcDbEntity
  8
HIDDEN
100
AcDbLine
 10
11.0
 20
3.421340147335058
 30
0.0
 11
13.0
 21
3.421340147335058
 31
0.0
  0
LINE
  5
136D
330
1355
100
AcDbEntity
  8
HIDDEN
100
AcDbLine
 10
13.0
 20
4.576040685714318
 30
0.0
 11
10.99999999999998
 21
3.421340147335058
 31
0.0
  0
LINE
  5
136E
330
1355
100
AcDbEntity
  8
HIDDEN
100
AcDbLine
 10
13.0
 20
4.576040685714318
 30
0.0
 11
15.00000000000001
 21
3.421340147335058
 31
0.0
  0
LINE
  5
136F
330
1355
100
AcDbEntity
  8
HIDDEN
100
AcDbLine
 10
15.0
 20
3.421340147335058
 30
0.0
 11
13.0
 21
3.421340147335058
 31
0.0
  0
LINE
  5
1370
330
1355
100
AcDbEntity
  8
HIDDEN
100
AcDbLine
 10
15.0
 20
0.6713401473351013
 30
0.0
 11
15.0
 21
3.421340147335058
 31
0.0
  0
TEXT
  5
1371
330
1355
100
AcDbEntity
  8
TEXT
100
AcDbText
 10
18.0
 20
-18.61630317116101
 30
0.0
 40
1.5
  1
柄部は各角C0.5の事
  7
GOTHIC
 11
18.0
 21
-17.86630317116101
 31
0.0
100
AcDbText
 73
     2
  0
LINE
  5
1372
330
1355
100
AcDbEntity
  8
TEXT
100
AcDbLine
 10
18.0
 20
-19.366303171161
 30
0.0
 11
36.0
 21
-19.366303171161
 31
0.0
  0
TEXT
  5
1373
330
1355
100
AcDbEntity
  8
TEXT
100
AcDbText
 10
-4.333987041441424
 20
-4.286575764921143
 30
0.0
 40
1.5
  1
Ｖ
 50
127.5000000000002
  7
GOTHIC
 72
     1
 11
-5.355135046965955
 21
-4.187799498473822
 31
0.0
100
AcDbText
 73
     2
  0
TEXT
  5
1374
330
1355
100
AcDbEntity
  8
TEXT
100
AcDbText
 10
-5.29453296403051
 20
-2.975282142987861
 30
0.0
 40
1.5
  1
Ｅ
 50
112.4999999999995
  7
GOTHIC
 72
     1
 11
-6.236186844451281
 21
-2.661773021129334
 31
0.0
100
AcDbText
 73
     2
  0
TEXT
  5
1375
330
1355
100
AcDbEntity
  8
TEXT
100
AcDbText
 10
-5.857300833688912
 20
-1.555828408946986
 30
0.0
 40
1.5
  1
Ｓ
 50
97.49999999999971
  7
GOTHIC
 72
     1
 11
-6.692252814273302
 21
-0.9597116501503537
 31
0.0
100
AcDbText
 73
     2
  0
TEXT
  5
1376
330
1355
100
AcDbEntity
  8
TEXT
100
AcDbText
 10
-6.040037502796977
 20
0.0104858976936549
 30
0.0
 40
1.5
  1
Ｓ
 50
82.5000000000003
  7
GOTHIC
 72
     1
 11
-6.692252814273302
 21
0.8023919448203571
 31
0.0
100
AcDbText
 73
     2
  0
TEXT
  5
1377
330
1355
100
AcDbEntity
  8
TEXT
100
AcDbText
 10
-5.792021426105089
 20
1.616919045393187
 30
0.0
 40
1.5
  1
Ｅ
 50
67.50000000000042
  7
GOTHIC
 72
     1
 11
-6.236186844451252
 21
2.504453315799338
 31
0.0
100
AcDbText
 73
     2
  0
TEXT
  5
1378
330
1355
100
AcDbEntity
  8
TEXT
100
AcDbText
 10
-5.186253042053579
 20
3.018561383183419
 30
0.0
 40
1.5
  1
Ｌ
 50
52.49999999999982
  7
GOTHIC
 72
     1
 11
-5.355135046965897
 21
4.030479793143824
 31
0.0
100
AcDbText
 73
     2
  0
TEXT
  5
1379
330
1355
100
AcDbEntity
  8
TEXT
100
AcDbText
 10
6.13643191659745
 20
3.810682897729096
 30
0.0
 40
1.5
  1
Ｊ
 50
127.5000000000002
  7
GOTHIC
 72
     1
 11
5.145721982523355
 21
3.869791497161854
 31
0.0
100
AcDbText
 73
     2
  0
TEXT
  5
137A
330
1355
100
AcDbEntity
  8
TEXT
100
AcDbText
 10
6.953108217857706
 20
2.043737331614861
 30
0.0
 40
1.5
  1
Ａ
 50
112.4999999999995
  7
GOTHIC
 72
     1
 11
5.992320165818681
 21
2.403440430098952
 31
0.0
100
AcDbText
 73
     2
  0
TEXT
  5
137B
330
1355
100
AcDbEntity
  8
TEXT
100
AcDbText
 10
7.325896193563336
 20
0.1797724058775361
 30
0.0
 40
1.5
  1
３
 50
97.49999999999971
  7
GOTHIC
 72
     1
 11
6.490944212978945
 21
0.7758891646741688
 31
0.0
100
AcDbText
 73
     2
  0
TEXT
  5
137C
330
1355
100
AcDbEntity
  8
TEXT
100
AcDbText
 10
7.149685834066301
 20
-1.675542674062177
 30
0.0
 40
1.5
  1
０
 50
82.5000000000003
  7
GOTHIC
 72
     1
 11
6.490944212978972
 21
-0.9332088700041651
 31
0.0
100
AcDbText
 73
     2
  0
TEXT
  5
137D
330
1355
100
AcDbEntity
  8
TEXT
100
AcDbText
 10
6.41735141254659
 20
-3.494488382460636
 30
0.0
 40
1.5
  1
Ｔ
 50
67.50000000000042
  7
GOTHIC
 72
     1
 11
5.992320165818681
 21
-2.56076013542892
 31
0.0
100
AcDbText
 73
     2
  0
TEXT
  5
137E
330
1355
100
AcDbEntity
  8
TEXT
100
AcDbText
 10
5.330712684700527
 20
-5.051390250604729
 30
0.0
 40
1.5
  1
Ｎ
 50
52.49999999999982
  7
GOTHIC
 72
     1
 11
5.161830679788208
 21
-4.039471840644323
 31
0.0
100
AcDbText
 73
     2
  0
CIRCLE
  5
137F
330
1355
100
AcDbEntity
  8
LINE
100
AcDbCircle
 10
0.0
 20
-0.0786598526649272
 30
0.0
 40
4.75
  0
LINE
  5
1380
330
1355
100
AcDbEntity
  8
LINE
100
AcDbLine
 10
-11.06023570539247
 20
5.671340147335072
 30
0.0
 11
8.0
 21
5.671340147335072
 31
0.0
  0
LINE
  5
1381
330
1355
100
AcDbEntity
  8
LINE
100
AcDbLine
 10
35.0
 20
0.9213401473350726
 30
0.0
 11
35.0
 21
-0.0786598526649272
 31
0.0
  0
ARC
  5
1382
330
1355
100
AcDbEntity
  8
LINE
100
AcDbCircle
 10
-11.06023570539247
 20
-14.32865985266493
 30
0.0
 40
20.0
100
AcDbArc
 50
90.0
 51
130.3149091747084
  0
LINE
  5
1383
330
1355
100
AcDbEntity
  8
LINE
100
AcDbLine
 10
-24.0
 20
0.9213401473350726
 30
0.0
 11
-23.0
 21
-0.0786598526649272
 31
0.0
  0
LINE
  5
1384
330
1355
100
AcDbEntity
  8
LINE
100
AcDbLine
 10
8.5
 20
-0.0786598526649129
 30
0.0
 11
8.5
 21
-0.0786598526648987
 31
0.0
  0
LINE
  5
1385
330
1355
100
AcDbEntity
  8
LINE
100
AcDbLine
 10
9.25
 20
0.6713401473351013
 30
0.0
 11
31.25
 21
0.6713401473351013
 31
0.0
  0
LINE
  5
1386
330
1355
100
AcDbEntity
  8
LINE
100
AcDbLine
 10
32.0
 20
-0.0786598526649129
 30
0.0
 11
32.0
 21
-0.0786598526649272
 31
0.0
  0
ARC
  5
1387
330
1355
100
AcDbEntity
  8
LINE
100
AcDbCircle
 10
9.25
 20
-0.0786598526648987
 30
0.0
 40
0.75
100
AcDbArc
 50
90.0
 51
180.0
  0
ARC
  5
1388
330
1355
100
AcDbEntity
  8
LINE
100
AcDbCircle
 10
31.25
 20
-0.0786598526649129
 30
0.0
 40
0.75
100
AcDbArc
 50
0.0
 51
90.0
  0
ARC
  5
1389
330
1355
100
AcDbEntity
  8
LINE
100
AcDbCircle
 10
31.25
 20
-0.0786598526649698
 30
0.0
 40
0.75
100
AcDbArc
 50
270.0
 51
0.0
  0
ARC
  5
138A
330
1355
100
AcDbEntity
  8
LINE
100
AcDbCircle
 10
9.250000000000014
 20
-0.0786598526649414
 30
0.0
 40
0.75
100
AcDbArc
 50
180.0
 51
270.0
  0
LINE
  5
138B
330
1355
100
AcDbEntity
  8
LINE
100
AcDbLine
 10
32.0
 20
-0.0786598526649698
 30
0.0
 11
32.0
 21
-0.0786598526649556
 31
0.0
  0
LINE
  5
138C
330
1355
100
AcDbEntity
  8
LINE
100
AcDbLine
 10
9.250000000000014
 20
-0.8286598526649413
 30
0.0
 11
31.25
 21
-0.8286598526649695
 31
0.0
  0
LINE
  5
138D
330
1355
100
AcDbEntity
  8
LINE
100
AcDbLine
 10
8.500000000000014
 20
-0.0786598526649272
 30
0.0
 11
8.500000000000014
 21
-0.0786598526649414
 31
0.0
  0
LINE
  5
138E
330
1355
100
AcDbEntity
  8
LINE
100
AcDbLine
 10
35.0
 20
-1.078659852664954
 30
0.0
 11
35.0
 21
-0.0786598526649556
 31
0.0
  0
LINE
  5
138F
330
1355
100
AcDbEntity
  8
HIDDEN
100
AcDbLine
 10
15.00000000000001
 20
-0.8286598526649553
 30
0.0
 11
15.0
 21
-3.578659852664912
 31
0.0
  0
LINE
  5
1390
330
1355
100
AcDbEntity
  8
HIDDEN
100
AcDbLine
 10
15.0
 20
-3.578659852664912
 30
0.0
 11
13.0
 21
-3.578659852664897
 31
0.0
  0
LINE
  5
1391
330
1355
100
AcDbEntity
  8
HIDDEN
100
AcDbLine
 10
13.0
 20
-4.733360391044158
 30
0.0
 11
15.00000000000001
 21
-3.578659852664912
 31
0.0
  0
LINE
  5
1392
330
1355
100
AcDbEntity
  8
HIDDEN
100
AcDbLine
 10
13.0
 20
-4.733360391044158
 30
0.0
 11
10.99999999999998
 21
-3.578659852664897
 31
0.0
  0
LINE
  5
1393
330
1355
100
AcDbEntity
  8
HIDDEN
100
AcDbLine
 10
11.0
 20
-3.578659852664897
 30
0.0
 11
13.0
 21
-3.578659852664897
 31
0.0
  0
LINE
  5
1394
330
1355
100
AcDbEntity
  8
HIDDEN
100
AcDbLine
 10
11.00000000000001
 20
-0.8286598526649413
 30
0.0
 11
11.0
 21
-3.578659852664897
 31
0.0
  0
LINE
  5
1395
330
1355
100
AcDbEntity
  8
CENTER
100
AcDbLine
 10
13.00000000000001
 20
-0.0786598526648987
 30
0.0
 11
13.0
 21
-5.078659852664897
 31
0.0
  0
LINE
  5
1396
330
1355
100
AcDbEntity
  8
LINE
100
AcDbLine
 10
-11.06023570539248
 20
-5.82865985266487
 30
0.0
 11
7.999999999999985
 21
-5.828659852664912
 31
0.0
  0
ARC
  5
1397
330
1355
100
AcDbEntity
  8
LINE
100
AcDbCircle
 10
-11.06023570539244
 20
14.17134014733506
 30
0.0
 40
20.0
100
AcDbArc
 50
229.6850908252909
 51
270.0
  0
LINE
  5
1398
330
1355
100
AcDbEntity
  8
LINE
100
AcDbLine
 10
-24.00000000000002
 20
-1.078659852664912
 30
0.0
 11
-23.0
 21
-0.0786598526649272
 31
0.0
  0
LINE
  5
1399
330
1355
100
AcDbEntity
  8
CENTER
100
AcDbLine
 10
-24.43552195694337
 20
-0.0786598526649272
 30
0.0
 11
-23.0
 21
-0.0786598526649272
 31
0.0
  0
LINE
  5
139A
330
1355
100
AcDbEntity
  8
LINE
100
AcDbLine
 10
-23.38652874101351
 20
1.421340147335087
 30
0.0
 11
-13.5
 21
1.421340147335071
 31
0.0
  0
LINE
  5
139B
330
1355
100
AcDbEntity
  8
LINE
100
AcDbLine
 10
-10.5
 20
4.421340147335071
 30
0.0
 11
-10.49999999999998
 21
5.671340147335072
 31
0.0
  0
ARC
  5
139C
330
1355
100
AcDbEntity
  8
LINE
100
AcDbCircle
 10
-13.5
 20
4.421340147335071
 30
0.0
 40
3.0
100
AcDbArc
 50
270.0
 51
0.0
  0
ARC
  5
139D
330
1355
100
AcDbEntity
  8
LINE
100
AcDbCircle
 10
-13.50000000000001
 20
-4.57865985266494
 30
0.0
 40
3.0
100
AcDbArc
 50
0.0
 51
90.0
  0
LINE
  5
139E
330
1355
100
AcDbEntity
  8
LINE
100
AcDbLine
 10
-10.50000000000001
 20
-4.578659852664954
 30
0.0
 11
-10.5
 21
-5.828659852664954
 31
0.0
  0
LINE
  5
139F
330
1355
100
AcDbEntity
  8
LINE
100
AcDbLine
 10
-23.38652874101351
 20
-1.57865985266494
 30
0.0
 11
-13.50000000000001
 21
-1.57865985266494
 31
0.0
  0
DIMENSION
  5
13A0
330
1355
100
AcDbEntity
  8
DIMENSION
100
AcDbDimension
  2
*D6
 10
35.0
 20
18.13369682883898
 30
0.0
 11
5.5
 21
19.38369682883898
 31
0.0
 12
-105.0
 22
-113.866303171161
 32
0.0
  3
VESSEL_ENGINEERING_ORIGINA
100
AcDbAlignedDimension
 13
-24.0
 23
0.9213401473350726
 33
0.0
 14
35.0
 24
0.9213401473350726
 34
0.0
100
AcDbRotatedDimension
1001
ACAD
1000
DSTYLE
1002
{
1070
   287
1070
     3
1070
   287
1070
     3
1070
   279
1070
     0
1002
}
  0
DIMENSION
  5
13A1
330
1355
100
AcDbEntity
  8
DIMENSION
100
AcDbDimension
  2
*D8
 10
39.0
 20
-1.078659852664954
 30
0.0
 11
37.74999999999996
 21
-0.0786598526649272
 31
0.0
 12
-105.0
 22
-113.866303171161
 32
0.0
  3
VESSEL_ENGINEERING_ORIGINA
100
AcDbAlignedDimension
 13
35.0
 23
0.9213401473350726
 33
0.0
 14
35.0
 24
-1.078659852664954
 34
0.0
 50
90.0
100
AcDbRotatedDimension
  0
DIMENSION
  5
13A2
330
1355
100
AcDbEntity
  8
DIMENSION
100
AcDbDimension
  2
*D10
 10
43.5
 20
-3.578659852664841
 30
0.0
 11
42.24999999999996
 21
-0.0786598526648987
 31
0.0
 12
-105.0
 22
-113.866303171161
 32
0.0
  3
VESSEL_ENGINEERING_ORIGINA
100
AcDbAlignedDimension
 13
31.5
 23
3.421340147335016
 33
0.0
 14
31.5
 24
-3.578659852664841
 34
0.0
 50
90.0
100
AcDbRotatedDimension
  0
DIMENSION
  5
13A3
330
1355
100
AcDbEntity
  8
DIMENSION
100
AcDbDimension
  2
*D12
 10
19.50000000000002
 20
-0.8286598526649553
 30
0.0
 11
19.45994109721129
 21
2.953341940126108
 31
0.0
 12
-105.0
 22
-113.866303171161
 32
0.0
 70
   128
  3
VESSEL_ENGINEERING_ORIGINA
100
AcDbAlignedDimension
 13
15.0
 23
0.6713401473351013
 33
0.0
 14
15.00000000000001
 24
-0.8286598526649553
 34
0.0
 50
90.0
100
AcDbRotatedDimension
1001
ACAD
1000
DSTYLE
1002
{
1070
    76
1070
     1
1070
    75
1070
     1
1002
}
  0
DIMENSION
  5
13A4
330
1355
100
AcDbEntity
  8
DIMENSION
100
AcDbDimension
  2
*D14
 10
-28.5
 20
-1.078659852664912
 30
0.0
 11
-29.75000000000003
 21
-0.0786598526649129
 31
0.0
 12
-105.0
 22
-113.866303171161
 32
0.0
  3
VESSEL_ENGINEERING_ORIGINA
100
AcDbAlignedDimension
 13
-24.0
 23
0.9213401473350726
 33
0.0
 14
-24.0
 24
-1.078659852664912
 34
0.0
 50
90.0
100
AcDbRotatedDimension
  0
LINE
  5
13A5
330
1355
100
AcDbEntity
  8
DIMENSION
 62
     3
100
AcDbLine
 10
-24.0
 20
0.9213401473350726
 30
0.0
 11
-32.19377443878048
 21
9.115114586115552
 31
0.0
  0
LINE
  5
13A6
330
1355
100
AcDbEntity
  8
DIMENSION
 62
     3
100
AcDbLine
 10
-24.00000000000002
 20
-1.078659852664912
 30
0.0
 11
-32.19377443878064
 21
-9.272434291445264
 31
0.0
  0
ARC
  5
13A7
330
1355
100
AcDbEntity
  8
DIMENSION
 62
     3
100
AcDbCircle
 10
-23.0
 20
-0.0786598526649272
 30
0.0
 40
11.50196050072245
100
AcDbArc
 50
139.9829627148529
 51
220.0170372851458
  0
INSERT
  5
13A8
330
1355
100
AcDbEntity
  8
DIMENSION
 62
     3
100
AcDbBlockReference
  2
_OPEN30
 10
-31.13311426700067
 20
8.054454414335737
 30
0.0
 50
47.49148135742673
  0
INSERT
  5
13A9
330
1355
100
AcDbEntity
  8
DIMENSION
 62
     3
100
AcDbBlockReference
  2
_OPEN30
 10
-31.13311426700079
 20
-8.211774119665461
 30
0.0
 50
312.5085186425727
  0
INSERT
  5
13AB
330
1355
100
AcDbEntity
  8
0
100
AcDbBlockReference
  2
*U43
 10
0.0
 20
0.0
 30
0.0
  0
DIMENSION
  5
13AC
330
1355
100
AcDbEntity
  8
DIMENSION
100
AcDbDimension
  2
*D16
 10
13.0
 20
-11.866303171161
 30
0.0
 11
6.5
 21
-10.616303171161
 31
0.0
 12
-105.0
 22
-113.866303171161
 32
0.0
  3
VESSEL_ENGINEERING_ORIGINA
100
AcDbAlignedDimension
 13
0.0
 23
-7.366303171161006
 33
0.0
 14
13.0
 24
-5.078659852664897
 34
0.0
100
AcDbRotatedDimension
1001
ACAD
1000
DSTYLE
1002
{
1070
   287
1070
     3
1070
   287
1070
     3
1070
   279
1070
     0
1002
}
  0
DIMENSION
  5
13AD
330
1355
100
AcDbEntity
  8
DIMENSION
100
AcDbDimension
  2
*D18
 10
35.0
 20
-11.866303171161
 30
0.0
 11
33.5
 21
-10.616303171161
 31
0.0
 12
-105.0
 22
-113.866303171161
 32
0.0
  3
VESSEL_ENGINEERING_ORIGINA
100
AcDbAlignedDimension
 13
32.0
 23
-0.0786598526649129
 33
0.0
 14
35.0
 24
-1.078659852664954
 34
0.0
100
AcDbRotatedDimension
  0
INSERT
  5
13AF
330
1355
100
AcDbEntity
  8
0
100
AcDbBlockReference
  2
*U44
 10
0.0
 20
0.0
 30
0.0
  0
INSERT
  5
13B0
330
1355
100
AcDbEntity
  8
DIMENSION
100
AcDbBlockReference
  2
_OPEN30
 10
14.01862236971871
 20
-4.145258491684501
 30
0.0
 50
100.8609177355813
1001
ACAD
1000
DSTYLE
1002
{
1070
   147
1040
0.5
1070
    77
1070
     1
1002
}
  0
LINE
  5
13B1
330
1355
100
AcDbEntity
  8
DIMENSION
100
AcDbLine
 10
14.2070479607943
 20
-5.127345960613722
 30
0.0
 11
15.5
 21
-11.866303171161
 31
0.0
1001
ACAD
1000
DSTYLE
1002
{
1070
   147
1040
0.5
1070
    77
1070
     1
1002
}
  0
LINE
  5
13B2
330
1355
100
AcDbEntity
  8
DIMENSION
100
AcDbLine
 10
15.5
 20
-11.866303171161
 30
0.0
 11
25.35610575749581
 21
-11.866303171161
 31
0.0
1001
ACAD
1000
DSTYLE
1002
{
1070
   147
1040
0.5
1070
    77
1070
     1
1002
}
  0
DIMENSION
  5
13B3
330
1355
100
AcDbEntity
  8
DIMENSION
100
AcDbDimension
  2
*D20
 10
-13.50000000000002
 20
4.421340147335057
 30
0.0
 11
-12.88546487444292
 21
3.498995581628348
 31
0.0
 12
-105.0
 22
-113.866303171161
 32
0.0
 70
   132
  3
VESSEL_ENGINEERING_ORIGIN3
100
AcDbRadialDimension
 15
-11.83657643570756
 25
1.924738047328503
 35
0.0
 40
0.0
1001
ACAD
1000
DSTYLE
1002
{
1070
   288
1070
     1
1002
}
  0
DIMENSION
  5
13B4
330
1355
100
AcDbEntity
  8
DIMENSION
100
AcDbDimension
  2
*D22
 10
-14.99999999999997
 20
-1.578659852664926
 30
0.0
 11
-15.00144961426473
 21
3.39543111629588
 31
0.0
 12
-105.0
 22
-113.866303171161
 32
0.0
 70
   128
  3
VESSEL_ENGINEERING_ORIGINA
100
AcDbAlignedDimension
 13
-23.38652874101348
 23
1.421340147335087
 33
0.0
 14
-23.38652874101351
 24
-1.578659852664926
 34
0.0
 50
90.0
100
AcDbRotatedDimension
1001
ACAD
1000
DSTYLE
1002
{
1070
    76
1070
     1
1070
    75
1070
     1
1002
}
  0
INSERT
  5
13B5
330
1355
100
AcDbEntity
  8
DIMENSION
100
AcDbBlockReference
  2
_OPEN30
 10
-16.67345921667942
 20
-5.024798053155563
 30
0.0
 50
71.12175098793646
1001
ACAD
1000
DSTYLE
1002
{
1070
   147
1040
0.5
1070
    77
1070
     1
1002
}
  0
POLYLINE
  5
13B6
330
1355
100
AcDbEntity
  8
DIMENSION
100
AcDb2dPolyline
 66
     1
 10
0.0
 20
0.0
 30
0.0
1001
ACAD
1000
DSTYLE
1002
{
1070
   147
1040
0.5
1070
    77
1070
     1
1002
}
  0
VERTEX
  5
13B7
330
13B6
100
AcDbEntity
  8
DIMENSION
100
AcDbVertex
100
AcDb2dVertex
 10
-16.997017452609
 20
-5.971006311395868
 30
0.0
  0
VERTEX
  5
13B8
330
13B6
100
AcDbEntity
  8
DIMENSION
100
AcDbVertex
100
AcDb2dVertex
 10
-18.5
 20
-10.366303171161
 30
0.0
  0
VERTEX
  5
13B9
330
13B6
100
AcDbEntity
  8
DIMENSION
100
AcDbVertex
100
AcDb2dVertex
 10
-23.22166397739628
 20
-10.366303171161
 30
0.0
  0
SEQEND
  5
13BA
330
13B6
100
AcDbEntity
  8
DIMENSION
  0
TEXT
  5
13BB
330
1355
100
AcDbEntity
  8
DIMENSION
100
AcDbText
 10
-22.5
 20
-9.616303171161005
 30
0.0
 40
1.5
  1
R20
  7
GOTHIC
 11
-22.5
 21
-8.866303171161005
 31
0.0
100
AcDbText
 73
     2
  0
LINE
  5
13BC
330
1355
100
AcDbEntity
  8
CENTER
100
AcDbLine
 10
35.0
 20
-0.0786598526649414
 30
0.0
 11
36.54536040722496
 21
-0.0786598526649414
 31
0.0
  0
LINE
  5
13BD
330
1355
100
AcDbEntity
  8
LINE
100
AcDbLine
 10
32.0
 20
-0.0786598526649982
 30
0.0
 11
35.0
 21
-0.0786598526649556
 31
0.0
  0
DIMENSION
  5
13BE
330
1355
100
AcDbEntity
  8
DIMENSION
100
AcDbDimension
  2
*D24
 10
0.4824975970455938
 20
-16.24294950005196
 30
0.0
 11
-6.192804629538358
 21
-10.80491211237304
 31
0.0
 12
-105.0
 22
-113.866303171161
 32
0.0
 70
     1
  1
φ17
  3
VESSEL_ENGINEERING_ORIGINA
100
AcDbAlignedDimension
 13
-7.36121593216771
 23
4.1713401473351
 33
0.0
 14
7.361215932167723
 24
-4.328659852664954
 34
0.0
  0
DIMENSION
  5
13BF
330
1355
100
AcDbEntity
  8
DIMENSION
100
AcDbDimension
  2
*D26
 10
-10.5
 20
9.133696828838992
 30
0.0
 11
-17.25
 21
10.38369682883899
 31
0.0
 12
-105.0
 22
-113.866303171161
 32
0.0
  3
VESSEL_ENGINEERING_ORIGINA
100
AcDbAlignedDimension
 13
-24.0
 23
0.921340147335087
 33
0.0
 14
-10.5
 24
5.671340147335072
 34
0.0
100
AcDbRotatedDimension
1001
ACAD
1000
DSTYLE
1002
{
1070
    75
1070
     1
1002
}
  0
DIMENSION
  5
13C0
330
1355
100
AcDbEntity
  8
DIMENSION
100
AcDbDimension
  2
*D28
 10
0.0
 20
9.133696828838992
 30
0.0
 11
-5.25
 21
10.38369682883899
 31
0.0
 12
-105.0
 22
-113.866303171161
 32
0.0
  3
VESSEL_ENGINEERING_ORIGINA
100
AcDbAlignedDimension
 13
-10.49999999999998
 23
5.671340147335072
 33
0.0
 14
0.0
 24
7.366303171161006
 34
0.0
100
AcDbRotatedDimension
1001
ACAD
1000
DSTYLE
1002
{
1070
    76
1070
     1
1002
}
  0
DIMENSION
  5
13C1
330
1355
100
AcDbEntity
  8
DIMENSION
100
AcDbDimension
  2
*D30
 10
8.0
 20
9.133696828838992
 30
0.0
 11
4.0
 21
10.38369682883899
 31
0.0
 12
-105.0
 22
-113.866303171161
 32
0.0
  3
VESSEL_ENGINEERING_ORIGINA
100
AcDbAlignedDimension
 13
0.0
 23
7.366303171161006
 33
0.0
 14
8.0
 24
5.671340147335072
 34
0.0
100
AcDbRotatedDimension
1001
ACAD
1000
DSTYLE
1002
{
1070
    75
1070
     1
1002
}
  0
DIMENSION
  5
13C2
330
1355
100
AcDbEntity
  8
DIMENSION
100
AcDbDimension
  2
*D32
 10
31.5
 20
9.133696828838992
 30
0.0
 11
19.75
 21
10.38369682883899
 31
0.0
 12
-105.0
 22
-113.866303171161
 32
0.0
  3
VESSEL_ENGINEERING_ORIGINA
100
AcDbAlignedDimension
 13
8.0
 23
5.671340147335072
 33
0.0
 14
31.5
 24
3.421340147335087
 34
0.0
100
AcDbRotatedDimension
  0
DIMENSION
  5
13C3
330
1355
100
AcDbEntity
  8
DIMENSION
100
AcDbDimension
  2
*D34
 10
35.0
 20
9.133696828838992
 30
0.0
 11
33.24902310835682
 21
9.133518062275696
 31
0.0
 12
-105.0
 22
-113.866303171161
 32
0.0
 70
   128
  3
VESSEL_ENGINEERING_ORIGINA
100
AcDbAlignedDimension
 13
31.5
 23
3.421340147335016
 33
0.0
 14
35.0
 24
0.9213401473350726
 34
0.0
100
AcDbRotatedDimension
1001
ACAD
1000
DSTYLE
1002
{
1070
    76
1070
     1
1002
}
  0
DIMENSION
  5
13C4
330
1355
100
AcDbEntity
  8
DIMENSION
100
AcDbDimension
  2
*D36
 10
0.0
 20
13.63369682883899
 30
0.0
 11
-12.0
 21
14.88369682883899
 31
0.0
 12
-105.0
 22
-113.866303171161
 32
0.0
  3
VESSEL_ENGINEERING_ORIGINA
100
AcDbAlignedDimension
 13
-24.0
 23
0.9213401473350726
 33
0.0
 14
0.0
 24
7.366303171161006
 34
0.0
100
AcDbRotatedDimension
1001
ACAD
1000
DSTYLE
1002
{
1070
    75
1070
     1
1002
}
  0
DIMENSION
  5
13C5
330
1355
100
AcDbEntity
  8
DIMENSION
100
AcDbDimension
  2
*D38
 10
35.0
 20
13.63369682883899
 30
0.0
 11
17.5
 21
14.88369682883899
 31
0.0
 12
-105.0
 22
-113.866303171161
 32
0.0
  3
VESSEL_ENGINEERING_ORIGINA
100
AcDbAlignedDimension
 13
0.0
 23
7.366303171161006
 33
0.0
 14
35.0
 24
0.9213401473350726
 34
0.0
100
AcDbRotatedDimension
1001
ACAD
1000
DSTYLE
1002
{
1070
    76
1070
     1
1070
    75
1070
     1
1002
}
  0
LINE
  5
13C6
330
1355
100
AcDbEntity
  8
LINE
100
AcDbLine
 10
8.0
 20
5.671340147335072
 30
0.0
 11
30.69789578417371
 21
3.498137359488595
 31
0.0
  0
LINE
  5
13C7
330
1355
100
AcDbEntity
  8
LINE
100
AcDbLine
 10
32.15568388330587
 20
2.952994516402242
 30
0.0
 11
35.0
 21
0.9213401473350726
 31
0.0
  0
ARC
  5
13C8
330
1355
100
AcDbEntity
  8
LINE
100
AcDbCircle
 10
30.4119693021486
 20
0.5117941027820195
 30
0.0
 40
3.0
100
AcDbArc
 50
54.46232220802638
 51
84.53090502988819
  0
LINE
  5
13C9
330
1355
100
AcDbEntity
  8
DIMENSION
100
AcDbLine
 10
30.69789578417371
 20
3.498137359488595
 30
0.0
 11
31.5
 21
3.421340147335016
 31
0.0
  0
LINE
  5
13CA
330
1355
100
AcDbEntity
  8
DIMENSION
100
AcDbLine
 10
31.5
 20
3.421340147335016
 30
0.0
 11
32.15568388330587
 21
2.952994516402256
 31
0.0
  0
LINE
  5
13CB
330
1355
100
AcDbEntity
  8
LINE
100
AcDbLine
 10
8.0
 20
-5.828659852664927
 30
0.0
 11
30.69789578417371
 21
-3.655457064818421
 31
0.0
  0
LINE
  5
13CC
330
1355
100
AcDbEntity
  8
LINE
100
AcDbLine
 10
32.15568388330587
 20
-3.110314221732068
 30
0.0
 11
35.0
 21
-1.078659852664898
 31
0.0
  0
ARC
  5
13CD
330
1355
100
AcDbEntity
  8
LINE
100
AcDbCircle
 10
30.4119693021486
 20
-0.6691138081118453
 30
0.0
 40
3.0
100
AcDbArc
 50
275.4690949701118
 51
305.5376777919736
  0
LINE
  5
13CE
330
1355
100
AcDbEntity
  8
DIMENSION
100
AcDbLine
 10
30.69789578417371
 20
-3.655457064818421
 30
0.0
 11
31.5
 21
-3.578659852664841
 31
0.0
  0
LINE
  5
13CF
330
1355
100
AcDbEntity
  8
DIMENSION
100
AcDbLine
 10
31.5
 20
-3.578659852664841
 30
0.0
 11
32.15568388330587
 21
-3.110314221732081
 31
0.0
  0
LINE
  5
13D0
330
1355
100
AcDbEntity
  8
LINE
100
AcDbLine
 10
29.5
 20
3.61282950903714
 30
0.0
 11
33.57784194165295
 21
1.937167331868663
 31
0.0
  0
LINE
  5
13D1
330
1355
100
AcDbEntity
  8
LINE
100
AcDbLine
 10
29.5
 20
-3.770149214366965
 30
0.0
 11
33.57784194165295
 21
-2.09448703719849
 31
0.0
  0
DIMENSION
  5
13D2
330
1355
100
AcDbEntity
  8
DIMENSION
100
AcDbDimension
  2
*D40
 10
30.41196930214809
 20
-0.6691138081123711
 30
0.0
 11
37.04661332781378
 21
-10.3659441436392
 31
0.0
 12
-105.0
 22
-113.866303171161
 32
0.0
 70
   132
  3
VESSEL_ENGINEERING_ORIGIN3
100
AcDbRadialDimension
 15
31.84299769053613
 25
-3.305808282568107
 35
0.0
 40
0.0
1001
ACAD
1000
DSTYLE
1002
{
1070
   288
1070
     1
1002
}
  0
ENDBLK
  5
13D3
330
1355
100
AcDbEntity
  8
0
100
AcDbBlockEnd
  0
BLOCK
  5
173C
330
13AA
100
AcDbEntity
  8
0
100
AcDbBlockBegin
  2
*U43
 70
     1
 10
0.0
 20
0.0
 30
0.0
  3
*U43
  1

  0
TEXT
  5
173D
330
13AA
100
AcDbEntity
  8
DIMENSION
 62
     3
100
AcDbText
 10
-35.00196050072246
 20
-0.888832596554683
 30
0.0
 40
1.5
  1
90°
 50
90.0
  7
GOTHIC
100
AcDbText
  0
ENDBLK
  5
173E
330
13AA
100
AcDbEntity
  8
0
100
AcDbBlockEnd
  0
BLOCK
  5
173F
330
13AE
100
AcDbEntity
  8
0
100
AcDbBlockBegin
  2
*U44
 70
     1
 10
0.0
 20
0.0
 30
0.0
  3
*U44
  1

  0
TEXT
  5
1740
330
13AE
100
AcDbEntity
  8
DIMENSION
 62
     3
100
AcDbText
 10
16.60406091370558
 20
-11.12264834882598
 30
0.0
 40
1.5
  1
φ4深2.5
  7
GOTHIC
100
AcDbText
  0
ENDBLK
  5
1741
330
13AE
100
AcDbEntity
  8
0
100
AcDbBlockEnd
  0
BLOCK
  5
13D5
330
13D4
100
AcDbEntity
  8
0
100
AcDbBlockBegin
  2
*D45
 70
     1
 10
0.0
 20
0.0
 30
0.0
  3
*D45
  1

  0
LINE
  5
13D6
330
13D4
100
AcDbEntity
  8
DIMENSION
100
AcDbLine
 10
20.10164880763444
 20
79.25
 30
0.0
 11
20.10164880763444
 21
84.21235668150393
 31
0.0
  0
LINE
  5
13D7
330
13D4
100
AcDbEntity
  8
DIMENSION
100
AcDbLine
 10
21.10164880763443
 20
82.71235668150392
 30
0.0
 11
23.10164880763442
 21
82.71235668150392
 31
0.0
  0
INSERT
  5
13D8
330
13D4
100
AcDbEntity
  8
DIMENSION
100
AcDbBlockReference
  2
_OPEN30
 10
20.10164880763444
 20
82.71235668150392
 30
0.0
 50
180.0
  0
INSERT
  5
13D9
330
13D4
100
AcDbEntity
  8
DIMENSION
100
AcDbBlockReference
  2
_OPEN30
 10
24.10164880763443
 20
82.71235668150392
 30
0.0
  0
INSERT
  5
13DB
330
13D4
100
AcDbEntity
  8
0
100
AcDbBlockReference
  2
*U46
 10
0.0
 20
0.0
 30
0.0
  0
POINT
  5
13DC
330
13D4
100
AcDbEntity
  8
DEFPOINTS
 62
     0
100
AcDbPoint
 10
20.10164880763444
 20
79.25
 30
0.0
  0
POINT
  5
13DD
330
13D4
100
AcDbEntity
  8
DEFPOINTS
 62
     0
100
AcDbPoint
 10
24.10164880763443
 20
79.25000000000001
 30
0.0
  0
POINT
  5
13DE
330
13D4
100
AcDbEntity
  8
DEFPOINTS
 62
     0
100
AcDbPoint
 10
24.10164880763443
 20
82.71235668150392
 30
0.0
  0
ENDBLK
  5
13DF
330
13D4
100
AcDbEntity
  8
0
100
AcDbBlockEnd
  0
BLOCK
  5
174B
330
13DA
100
AcDbEntity
  8
0
100
AcDbBlockBegin
  2
*U46
 70
     1
 10
0.0
 20
0.0
 30
0.0
  3
*U46
  1

  0
TEXT
  5
174C
330
13DA
100
AcDbEntity
  8
DIMENSION
100
AcDbText
 10
21.61814626956336
 20
83.21235668150391
 30
0.0
 40
1.5
  1
4
  7
GOTHIC
100
AcDbText
  0
ENDBLK
  5
174D
330
13DA
100
AcDbEntity
  8
0
100
AcDbBlockEnd
  0
BLOCK
  5
13E1
330
13E0
100
AcDbEntity
  8
0
100
AcDbBlockBegin
  2
*D47
 70
     1
 10
0.0
 20
0.0
 30
0.0
  3
*D47
  1

  0
LINE
  5
13E2
330
13E0
100
AcDbEntity
  8
DIMENSION
100
AcDbLine
 10
63.75
 20
79.24999999999998
 30
0.0
 11
63.75
 21
84.21235668150391
 31
0.0
  0
LINE
  5
13E3
330
13E0
100
AcDbEntity
  8
DIMENSION
100
AcDbLine
 10
51.25
 20
82.7123566815039
 30
0.0
 11
62.75
 21
82.7123566815039
 31
0.0
  0
INSERT
  5
13E4
330
13E0
100
AcDbEntity
  8
DIMENSION
100
AcDbBlockReference
  2
_OPEN30
 10
50.25
 20
82.7123566815039
 30
0.0
 50
180.0
  0
INSERT
  5
13E5
330
13E0
100
AcDbEntity
  8
DIMENSION
100
AcDbBlockReference
  2
_OPEN30
 10
63.75
 20
82.7123566815039
 30
0.0
  0
INSERT
  5
13E7
330
13E0
100
AcDbEntity
  8
0
100
AcDbBlockReference
  2
*U48
 10
0.0
 20
0.0
 30
0.0
  0
POINT
  5
13E8
330
13E0
100
AcDbEntity
  8
DEFPOINTS
 62
     0
100
AcDbPoint
 10
50.25
 20
74.5
 30
0.0
  0
POINT
  5
13E9
330
13E0
100
AcDbEntity
  8
DEFPOINTS
 62
     0
100
AcDbPoint
 10
63.75
 20
79.24999999999998
 30
0.0
  0
POINT
  5
13EA
330
13E0
100
AcDbEntity
  8
DEFPOINTS
 62
     0
100
AcDbPoint
 10
63.75
 20
82.7123566815039
 30
0.0
  0
ENDBLK
  5
13EB
330
13E0
100
AcDbEntity
  8
0
100
AcDbBlockEnd
  0
BLOCK
  5
174E
330
13E6
100
AcDbEntity
  8
0
100
AcDbBlockBegin
  2
*U48
 70
     1
 10
0.0
 20
0.0
 30
0.0
  3
*U48
  1

  0
TEXT
  5
174F
330
13E6
100
AcDbEntity
  8
DIMENSION
100
AcDbText
 10
55.01269035532993
 20
83.21235668150391
 30
0.0
 40
1.5
  1
13.5
  7
GOTHIC
100
AcDbText
  0
ENDBLK
  5
1750
330
13E6
100
AcDbEntity
  8
0
100
AcDbBlockEnd
  0
BLOCK
  5
13ED
330
13EC
100
AcDbEntity
  8
0
100
AcDbBlockBegin
  2
*D49
 70
     1
 10
0.0
 20
0.0
 30
0.0
  3
*D49
  1

  0
LINE
  5
13EE
330
13EC
100
AcDbEntity
  8
DIMENSION
100
AcDbLine
 10
63.75
 20
79.25
 30
0.0
 11
63.75
 21
84.21235668150393
 31
0.0
  0
LINE
  5
13EF
330
13EC
100
AcDbEntity
  8
DIMENSION
100
AcDbLine
 10
64.75000000000001
 20
82.71235668150392
 30
0.0
 11
73.25
 21
82.71235668150392
 31
0.0
  0
INSERT
  5
13F0
330
13EC
100
AcDbEntity
  8
DIMENSION
100
AcDbBlockReference
  2
_OPEN30
 10
63.75
 20
82.71235668150392
 30
0.0
 50
180.0
  0
INSERT
  5
13F1
330
13EC
100
AcDbEntity
  8
DIMENSION
100
AcDbBlockReference
  2
_OPEN30
 10
74.25
 20
82.71235668150392
 30
0.0
  0
INSERT
  5
13F3
330
13EC
100
AcDbEntity
  8
0
100
AcDbBlockReference
  2
*U50
 10
0.0
 20
0.0
 30
0.0
  0
POINT
  5
13F4
330
13EC
100
AcDbEntity
  8
DEFPOINTS
 62
     0
100
AcDbPoint
 10
63.75
 20
79.25
 30
0.0
  0
POINT
  5
13F5
330
13EC
100
AcDbEntity
  8
DEFPOINTS
 62
     0
100
AcDbPoint
 10
74.25
 20
80.94496302382593
 30
0.0
  0
POINT
  5
13F6
330
13EC
100
AcDbEntity
  8
DEFPOINTS
 62
     0
100
AcDbPoint
 10
74.25
 20
82.71235668150392
 30
0.0
  0
ENDBLK
  5
13F7
330
13EC
100
AcDbEntity
  8
0
100
AcDbBlockEnd
  0
BLOCK
  5
1751
330
13F2
100
AcDbEntity
  8
0
100
AcDbBlockBegin
  2
*U50
 70
     1
 10
0.0
 20
0.0
 30
0.0
  3
*U50
  1

  0
TEXT
  5
1752
330
13F2
100
AcDbEntity
  8
DIMENSION
100
AcDbText
 10
67.01269035532995
 20
83.21235668150391
 30
0.0
 40
1.5
  1
10.5
  7
GOTHIC
100
AcDbText
  0
ENDBLK
  5
1753
330
13F2
100
AcDbEntity
  8
0
100
AcDbBlockEnd
  0
BLOCK
  5
13F9
330
13F8
100
AcDbEntity
  8
0
100
AcDbBlockBegin
  2
*D51
 70
     1
 10
0.0
 20
0.0
 30
0.0
  3
*D51
  1

  0
LINE
  5
13FA
330
13F8
100
AcDbEntity
  8
DIMENSION
100
AcDbLine
 10
23.90164880763443
 20
67.74999999999998
 30
0.0
 11
23.90164880763443
 21
60.21235668150392
 31
0.0
  0
LINE
  5
13FB
330
13F8
100
AcDbEntity
  8
DIMENSION
100
AcDbLine
 10
24.10164880763443
 20
67.74999999999998
 30
0.0
 11
24.10164880763443
 21
60.21235668150392
 31
0.0
  0
LINE
  5
13FC
330
13F8
100
AcDbEntity
  8
DIMENSION
100
AcDbLine
 10
25.10164880763444
 20
61.71235668150393
 30
0.0
 11
26.10164880763444
 21
61.71235668150393
 31
0.0
  0
LINE
  5
13FD
330
13F8
100
AcDbEntity
  8
DIMENSION
100
AcDbLine
 10
22.90164880763442
 20
61.71235668150393
 30
0.0
 11
18.14530362996944
 21
61.71235668150393
 31
0.0
  0
LINE
  5
13FE
330
13F8
100
AcDbEntity
  8
DIMENSION
100
AcDbLine
 10
24.10164880763443
 20
61.71235668150393
 30
0.0
 11
23.90164880763443
 21
61.71235668150393
 31
0.0
  0
INSERT
  5
13FF
330
13F8
100
AcDbEntity
  8
DIMENSION
100
AcDbBlockReference
  2
_OPEN30
 10
24.10164880763443
 20
61.71235668150393
 30
0.0
 50
180.0
  0
INSERT
  5
1400
330
13F8
100
AcDbEntity
  8
DIMENSION
100
AcDbBlockReference
  2
_OPEN30
 10
23.90164880763443
 20
61.71235668150393
 30
0.0
  0
INSERT
  5
1402
330
13F8
100
AcDbEntity
  8
0
100
AcDbBlockReference
  2
*U52
 10
0.0
 20
0.0
 30
0.0
  0
POINT
  5
1403
330
13F8
100
AcDbEntity
  8
DEFPOINTS
 62
     0
100
AcDbPoint
 10
23.90164880763443
 20
67.74999999999998
 30
0.0
  0
POINT
  5
1404
330
13F8
100
AcDbEntity
  8
DEFPOINTS
 62
     0
100
AcDbPoint
 10
24.10164880763443
 20
67.74999999999998
 30
0.0
  0
POINT
  5
1405
330
13F8
100
AcDbEntity
  8
DEFPOINTS
 62
     0
100
AcDbPoint
 10
24.10164880763443
 20
61.71235668150393
 30
0.0
  0
ENDBLK
  5
1406
330
13F8
100
AcDbEntity
  8
0
100
AcDbBlockEnd
  0
BLOCK
  5
1754
330
1401
100
AcDbEntity
  8
0
100
AcDbBlockBegin
  2
*U52
 70
     1
 10
0.0
 20
0.0
 30
0.0
  3
*U52
  1

  0
TEXT
  5
1755
330
1401
100
AcDbEntity
  8
DIMENSION
100
AcDbText
 10
18.5843899243857
 20
62.21235668150391
 30
0.0
 40
1.5
  1
0.2
  7
GOTHIC
100
AcDbText
  0
ENDBLK
  5
1756
330
1401
100
AcDbEntity
  8
0
100
AcDbBlockEnd
  0
BLOCK
  5
1408
330
1407
100
AcDbEntity
  8
0
100
AcDbBlockBegin
  2
*D53
 70
     1
 10
0.0
 20
0.0
 30
0.0
  3
*D53
  1

  0
LINE
  5
1409
330
1407
100
AcDbEntity
  8
DIMENSION
100
AcDbLine
 10
50.25
 20
74.5
 30
0.0
 11
50.25
 21
88.71235668150392
 31
0.0
  0
LINE
  5
140A
330
1407
100
AcDbEntity
  8
DIMENSION
100
AcDbLine
 10
74.25
 20
80.94496302382593
 30
0.0
 11
74.25
 21
88.71235668150392
 31
0.0
  0
LINE
  5
140B
330
1407
100
AcDbEntity
  8
DIMENSION
100
AcDbLine
 10
51.25
 20
87.2123566815039
 30
0.0
 11
73.25
 21
87.2123566815039
 31
0.0
  0
INSERT
  5
140C
330
1407
100
AcDbEntity
  8
DIMENSION
100
AcDbBlockReference
  2
_OPEN30
 10
50.25
 20
87.2123566815039
 30
0.0
 50
180.0
  0
INSERT
  5
140D
330
1407
100
AcDbEntity
  8
DIMENSION
100
AcDbBlockReference
  2
_OPEN30
 10
74.25
 20
87.2123566815039
 30
0.0
  0
INSERT
  5
140F
330
1407
100
AcDbEntity
  8
0
100
AcDbBlockReference
  2
*U54
 10
0.0
 20
0.0
 30
0.0
  0
POINT
  5
1410
330
1407
100
AcDbEntity
  8
DEFPOINTS
 62
     0
100
AcDbPoint
 10
50.25
 20
74.5
 30
0.0
  0
POINT
  5
1411
330
1407
100
AcDbEntity
  8
DEFPOINTS
 62
     0
100
AcDbPoint
 10
74.25
 20
80.94496302382593
 30
0.0
  0
POINT
  5
1412
330
1407
100
AcDbEntity
  8
DEFPOINTS
 62
     0
100
AcDbPoint
 10
74.25
 20
87.2123566815039
 30
0.0
  0
ENDBLK
  5
1413
330
1407
100
AcDbEntity
  8
0
100
AcDbBlockEnd
  0
BLOCK
  5
1757
330
140E
100
AcDbEntity
  8
0
100
AcDbBlockBegin
  2
*U54
 70
     1
 10
0.0
 20
0.0
 30
0.0
  3
*U54
  1

  0
TEXT
  5
1758
330
140E
100
AcDbEntity
  8
DIMENSION
100
AcDbText
 10
61.26395939086294
 20
87.71235668150392
 30
0.0
 40
1.5
  1
24
  7
GOTHIC
100
AcDbText
  0
ENDBLK
  5
1759
330
140E
100
AcDbEntity
  8
0
100
AcDbBlockEnd
  0
BLOCK
  5
1415
330
1414
100
AcDbEntity
  8
0
100
AcDbBlockBegin
  2
*D55
 70
     1
 10
0.0
 20
0.0
 30
0.0
  3
*D55
  1

  0
LINE
  5
1416
330
1414
100
AcDbEntity
  8
DIMENSION
100
AcDbLine
 10
50.25
 20
74.5
 30
0.0
 11
44.24999999999999
 21
74.5
 31
0.0
  0
LINE
  5
1417
330
1414
100
AcDbEntity
  8
DIMENSION
100
AcDbLine
 10
50.25
 20
72.50000000000001
 30
0.0
 11
44.24999999999999
 21
72.50000000000001
 31
0.0
  0
LINE
  5
1418
330
1414
100
AcDbEntity
  8
DIMENSION
100
AcDbLine
 10
45.75
 20
75.5
 30
0.0
 11
45.75
 21
76.5
 31
0.0
  0
LINE
  5
1419
330
1414
100
AcDbEntity
  8
DIMENSION
100
AcDbLine
 10
45.75
 20
71.50000000000002
 30
0.0
 11
45.75
 21
70.50000000000001
 31
0.0
  0
LINE
  5
141A
330
1414
100
AcDbEntity
  8
DIMENSION
100
AcDbLine
 10
45.75
 20
74.5
 30
0.0
 11
45.75
 21
72.50000000000001
 31
0.0
  0
INSERT
  5
141B
330
1414
100
AcDbEntity
  8
DIMENSION
100
AcDbBlockReference
  2
_OPEN30
 10
45.75
 20
74.5
 30
0.0
 50
270.0
  0
INSERT
  5
141C
330
1414
100
AcDbEntity
  8
DIMENSION
100
AcDbBlockReference
  2
_OPEN30
 10
45.75
 20
72.50000000000001
 30
0.0
 50
90.0
  0
INSERT
  5
141E
330
1414
100
AcDbEntity
  8
0
100
AcDbBlockReference
  2
*U56
 10
0.0
 20
0.0
 30
0.0
  0
POINT
  5
141F
330
1414
100
AcDbEntity
  8
DEFPOINTS
 62
     0
100
AcDbPoint
 10
50.25
 20
74.5
 30
0.0
  0
POINT
  5
1420
330
1414
100
AcDbEntity
  8
DEFPOINTS
 62
     0
100
AcDbPoint
 10
50.25
 20
72.50000000000001
 30
0.0
  0
POINT
  5
1421
330
1414
100
AcDbEntity
  8
DEFPOINTS
 62
     0
100
AcDbPoint
 10
45.75
 20
72.50000000000001
 30
0.0
  0
ENDBLK
  5
1422
330
1414
100
AcDbEntity
  8
0
100
AcDbBlockEnd
  0
BLOCK
  5
1742
330
141D
100
AcDbEntity
  8
0
100
AcDbBlockBegin
  2
*U56
 70
     1
 10
0.0
 20
0.0
 30
0.0
  3
*U56
  1

  0
TEXT
  5
1743
330
141D
100
AcDbEntity
  8
DIMENSION
100
AcDbText
 10
45.24999999999999
 20
73.02030456852794
 30
0.0
 40
1.5
  1
2
 50
90.0
  7
GOTHIC
100
AcDbText
  0
ENDBLK
  5
1744
330
141D
100
AcDbEntity
  8
0
100
AcDbBlockEnd
  0
BLOCK
  5
1424
330
1423
100
AcDbEntity
  8
0
100
AcDbBlockBegin
  2
*D57
 70
     1
 10
0.0
 20
0.0
 30
0.0
  3
*D57
  1

  0
LINE
  5
1425
330
1423
100
AcDbEntity
  8
DIMENSION
100
AcDbLine
 10
60.75
 20
78.0
 30
0.0
 11
61.85894904286167
 21
76.33559859999559
 31
0.0
  0
INSERT
  5
1426
330
1423
100
AcDbEntity
  8
DIMENSION
100
AcDbBlockReference
  2
_OPEN30
 10
62.41342356429248
 20
75.50339789999345
 30
0.0
 50
303.6745287482023
  0
INSERT
  5
1428
330
1423
100
AcDbEntity
  8
0
100
AcDbBlockReference
  2
*U58
 10
0.0
 20
0.0
 30
0.0
  0
POINT
  5
1429
330
1423
100
AcDbEntity
  8
DEFPOINTS
 62
     0
100
AcDbPoint
 10
62.41342356429248
 20
75.50339789999345
 30
0.0
  0
POINT
  5
142A
330
1423
100
AcDbEntity
  8
DEFPOINTS
 62
     0
100
AcDbPoint
 10
60.75
 20
78.0
 30
0.0
  0
ENDBLK
  5
142B
330
1423
100
AcDbEntity
  8
0
100
AcDbBlockEnd
  0
BLOCK
  5
175A
330
1427
100
AcDbEntity
  8
0
100
AcDbBlockBegin
  2
*U58
 70
     1
 10
0.0
 20
0.0
 30
0.0
  3
*U58
  1

  0
TEXT
  5
175B
330
1427
100
AcDbEntity
  8
DIMENSION
100
AcDbText
 10
61.24656674235264
 20
78.15646671950315
 30
0.0
 40
1.5
  1
R3
 50
303.6745287482023
  7
GOTHIC
100
AcDbText
  0
ENDBLK
  5
175C
330
1427
100
AcDbEntity
  8
0
100
AcDbBlockEnd
  0
BLOCK
  5
142D
330
142C
100
AcDbEntity
  8
0
100
AcDbBlockBegin
  2
*D59
 70
     1
 10
0.0
 20
0.0
 30
0.0
  3
*D59
  1

  0
LINE
  5
142E
330
142C
100
AcDbEntity
  8
DIMENSION
100
AcDbLine
 10
59.25000000000002
 20
74.00000000000002
 30
0.0
 11
59.25000000000002
 21
73.0
 31
0.0
  0
LINE
  5
142F
330
142C
100
AcDbEntity
  8
DIMENSION
100
AcDbLine
 10
59.25000000000002
 20
77.86241584205725
 30
0.0
 11
59.25000000000002
 21
75.00000000000001
 31
0.0
  0
INSERT
  5
1431
330
142C
100
AcDbEntity
  8
0
100
AcDbBlockReference
  2
*U60
 10
0.0
 20
0.0
 30
0.0
  0
INSERT
  5
1432
330
142C
100
AcDbEntity
  8
DIMENSION
100
AcDbBlockReference
  2
_OPEN30
 10
59.25000000000002
 20
75.00000000000001
 30
0.0
 50
90.0
  0
INSERT
  5
1433
330
142C
100
AcDbEntity
  8
DIMENSION
100
AcDbBlockReference
  2
_OPEN30
 10
59.25000000000002
 20
72.0
 30
0.0
 50
270.0
  0
POINT
  5
1434
330
142C
100
AcDbEntity
  8
DEFPOINTS
 62
     0
100
AcDbPoint
 10
50.8634712589865
 20
75.00000000000001
 30
0.0
  0
POINT
  5
1435
330
142C
100
AcDbEntity
  8
DEFPOINTS
 62
     0
100
AcDbPoint
 10
50.86347125898647
 20
72.0
 30
0.0
  0
POINT
  5
1436
330
142C
100
AcDbEntity
  8
DEFPOINTS
 62
     0
100
AcDbPoint
 10
59.25000000000002
 20
72.0
 30
0.0
  0
ENDBLK
  5
1437
330
142C
100
AcDbEntity
  8
0
100
AcDbBlockEnd
  0
BLOCK
  5
1745
330
1430
100
AcDbEntity
  8
0
100
AcDbBlockBegin
  2
*U60
 70
     1
 10
0.0
 20
0.0
 30
0.0
  3
*U60
  1

  0
TEXT
  5
1746
330
1430
100
AcDbEntity
  8
DIMENSION
100
AcDbText
 10
58.75
 20
76.50200975068668
 30
0.0
 40
1.5
  1
3
 50
90.0
  7
GOTHIC
100
AcDbText
  0
ENDBLK
  5
1747
330
1430
100
AcDbEntity
  8
0
100
AcDbBlockEnd
  0
BLOCK
  5
1439
330
1438
100
AcDbEntity
  8
0
100
AcDbBlockBegin
  2
*D61
 70
     1
 10
0.0
 20
0.0
 30
0.0
  3
*D61
  1

  0
LINE
  5
143A
330
1438
100
AcDbEntity
  8
DIMENSION
100
AcDbLine
 10
17.10164880763443
 20
79.25000000000001
 30
0.0
 11
11.25
 21
79.25000000000001
 31
0.0
  0
LINE
  5
143B
330
1438
100
AcDbEntity
  8
DIMENSION
100
AcDbLine
 10
17.10164880763443
 20
67.75
 30
0.0
 11
11.25
 21
67.75
 31
0.0
  0
LINE
  5
143C
330
1438
100
AcDbEntity
  8
DIMENSION
100
AcDbLine
 10
12.75
 20
78.25000000000001
 30
0.0
 11
12.75
 21
68.75
 31
0.0
  0
INSERT
  5
143D
330
1438
100
AcDbEntity
  8
DIMENSION
100
AcDbBlockReference
  2
_OPEN30
 10
12.75
 20
79.25000000000001
 30
0.0
 50
90.0
  0
INSERT
  5
143E
330
1438
100
AcDbEntity
  8
DIMENSION
100
AcDbBlockReference
  2
_OPEN30
 10
12.75
 20
67.75
 30
0.0
 50
270.0
  0
INSERT
  5
1440
330
1438
100
AcDbEntity
  8
0
100
AcDbBlockReference
  2
*U62
 10
0.0
 20
0.0
 30
0.0
  0
POINT
  5
1441
330
1438
100
AcDbEntity
  8
DEFPOINTS
 62
     0
100
AcDbPoint
 10
17.10164880763443
 20
79.25000000000001
 30
0.0
  0
POINT
  5
1442
330
1438
100
AcDbEntity
  8
DEFPOINTS
 62
     0
100
AcDbPoint
 10
17.10164880763443
 20
67.75
 30
0.0
  0
POINT
  5
1443
330
1438
100
AcDbEntity
  8
DEFPOINTS
 62
     0
100
AcDbPoint
 10
12.75
 20
67.75
 30
0.0
  0
ENDBLK
  5
1444
330
1438
100
AcDbEntity
  8
0
100
AcDbBlockEnd
  0
BLOCK
  5
1748
330
143F
100
AcDbEntity
  8
0
100
AcDbBlockBegin
  2
*U62
 70
     1
 10
0.0
 20
0.0
 30
0.0
  3
*U62
  1

  0
TEXT
  5
1749
330
143F
100
AcDbEntity
  8
DIMENSION
100
AcDbText
 10
12.24999999999998
 20
71.51269035532995
 30
0.0
 40
1.5
  1
11.5
 50
90.0
  7
GOTHIC
100
AcDbText
  0
ENDBLK
  5
174A
330
143F
100
AcDbEntity
  8
0
100
AcDbBlockEnd
  0
BLOCK
  5
1446
330
1445
100
AcDbEntity
  8
0
100
AcDbBlockBegin
  2
*D63
 70
     1
 10
0.0
 20
0.0
 30
0.0
  3
*D63
  1

  0
LINE
  5
1447
330
1445
100
AcDbEntity
  8
DIMENSION
100
AcDbLine
 10
108.4820508075688
 20
47.0
 30
0.0
 11
119.25
 21
46.99999999999999
 31
0.0
  0
LINE
  5
1448
330
1445
100
AcDbEntity
  8
DIMENSION
100
AcDbLine
 10
108.4820508075688
 20
40.0
 30
0.0
 11
119.25
 21
40.0
 31
0.0
  0
LINE
  5
1449
330
1445
100
AcDbEntity
  8
DIMENSION
100
AcDbLine
 10
117.7499999999999
 20
45.99999999999999
 30
0.0
 11
117.7499999999999
 21
40.99999999999999
 31
0.0
  0
INSERT
  5
144A
330
1445
100
AcDbEntity
  8
DIMENSION
100
AcDbBlockReference
  2
_OPEN30
 10
117.7499999999999
 20
46.99999999999999
 30
0.0
 50
90.0
  0
INSERT
  5
144B
330
1445
100
AcDbEntity
  8
DIMENSION
100
AcDbBlockReference
  2
_OPEN30
 10
117.7499999999999
 20
40.0
 30
0.0
 50
270.0
  0
INSERT
  5
144D
330
1445
100
AcDbEntity
  8
0
100
AcDbBlockReference
  2
*U64
 10
0.0
 20
0.0
 30
0.0
  0
POINT
  5
144E
330
1445
100
AcDbEntity
  8
DEFPOINTS
 62
     0
100
AcDbPoint
 10
108.4820508075688
 20
47.0
 30
0.0
  0
POINT
  5
144F
330
1445
100
AcDbEntity
  8
DEFPOINTS
 62
     0
100
AcDbPoint
 10
108.4820508075688
 20
40.0
 30
0.0
  0
POINT
  5
1450
330
1445
100
AcDbEntity
  8
DEFPOINTS
 62
     0
100
AcDbPoint
 10
117.7499999999999
 20
40.0
 30
0.0
  0
ENDBLK
  5
1451
330
1445
100
AcDbEntity
  8
0
100
AcDbBlockEnd
  0
BLOCK
  5
1761
330
144C
100
AcDbEntity
  8
0
100
AcDbBlockBegin
  2
*U64
 70
     1
 10
0.0
 20
0.0
 30
0.0
  3
*U64
  1

  0
TEXT
  5
1762
330
144C
100
AcDbEntity
  8
DIMENSION
100
AcDbText
 10
117.2499999999998
 20
41.56294416243656
 30
0.0
 40
1.5
  1
7
 50
90.0
  7
GOTHIC
100
AcDbText
  0
TEXT
  5
1763
330
144C
100
AcDbEntity
  8
DIMENSION
100
AcDbText
 10
115.6621827411167
 20
42.53756345177666
 30
0.0
 40
1.199999999999999
  1
 0
 50
90.0
  7
GOTHIC
100
AcDbText
  0
TEXT
  5
1764
330
144C
100
AcDbEntity
  8
DIMENSION
100
AcDbText
 10
117.2499999999998
 20
42.5010152284264
 30
0.0
 40
1.199999999999999
  1
-0.1
 50
90.0
  7
GOTHIC
100
AcDbText
  0
ENDBLK
  5
1765
330
144C
100
AcDbEntity
  8
0
100
AcDbBlockEnd
  0
BLOCK
  5
1453
330
1452
100
AcDbEntity
  8
0
100
AcDbBlockBegin
  2
*D65
 70
     1
 10
0.0
 20
0.0
 30
0.0
  3
*D65
  1

  0
LINE
  5
1454
330
1452
100
AcDbEntity
  8
DIMENSION
100
AcDbLine
 10
63.75
 20
39.99999999999999
 30
0.0
 11
63.75
 21
33.75
 31
0.0
  0
LINE
  5
1455
330
1452
100
AcDbEntity
  8
DIMENSION
100
AcDbLine
 10
74.25
 20
38.25
 30
0.0
 11
74.25
 21
33.75
 31
0.0
  0
LINE
  5
1456
330
1452
100
AcDbEntity
  8
DIMENSION
100
AcDbLine
 10
64.75000000000001
 20
35.25
 30
0.0
 11
73.25
 21
35.25
 31
0.0
  0
INSERT
  5
1457
330
1452
100
AcDbEntity
  8
DIMENSION
100
AcDbBlockReference
  2
_OPEN30
 10
63.75
 20
35.25
 30
0.0
 50
180.0
  0
INSERT
  5
1458
330
1452
100
AcDbEntity
  8
DIMENSION
100
AcDbBlockReference
  2
_OPEN30
 10
74.25
 20
35.25
 30
0.0
  0
INSERT
  5
145A
330
1452
100
AcDbEntity
  8
0
100
AcDbBlockReference
  2
*U66
 10
0.0
 20
0.0
 30
0.0
  0
POINT
  5
145B
330
1452
100
AcDbEntity
  8
DEFPOINTS
 62
     0
100
AcDbPoint
 10
63.75
 20
39.99999999999999
 30
0.0
  0
POINT
  5
145C
330
1452
100
AcDbEntity
  8
DEFPOINTS
 62
     0
100
AcDbPoint
 10
74.25
 20
38.25
 30
0.0
  0
POINT
  5
145D
330
1452
100
AcDbEntity
  8
DEFPOINTS
 62
     0
100
AcDbPoint
 10
74.25
 20
35.25
 30
0.0
  0
ENDBLK
  5
145E
330
1452
100
AcDbEntity
  8
0
100
AcDbBlockEnd
  0
BLOCK
  5
1766
330
1459
100
AcDbEntity
  8
0
100
AcDbBlockBegin
  2
*U66
 70
     1
 10
0.0
 20
0.0
 30
0.0
  3
*U66
  1

  0
TEXT
  5
1767
330
1459
100
AcDbEntity
  8
DIMENSION
100
AcDbText
 10
67.01269035532995
 20
35.75
 30
0.0
 40
1.5
  1
10.5
  7
GOTHIC
100
AcDbText
  0
ENDBLK
  5
1768
330
1459
100
AcDbEntity
  8
0
100
AcDbBlockEnd
  0
BLOCK
  5
1460
330
145F
100
AcDbEntity
  8
0
100
AcDbBlockBegin
  2
*D67
 70
     1
 10
0.0
 20
0.0
 30
0.0
  3
*D67
  1

  0
LINE
  5
1461
330
145F
100
AcDbEntity
  8
DIMENSION
100
AcDbLine
 10
50.25
 20
47.0
 30
0.0
 11
44.24999999999998
 21
47.00000000000001
 31
0.0
  0
LINE
  5
1462
330
145F
100
AcDbEntity
  8
DIMENSION
100
AcDbLine
 10
59.25
 20
43.0
 30
0.0
 11
44.24999999999998
 21
43.0
 31
0.0
  0
LINE
  5
1463
330
145F
100
AcDbEntity
  8
DIMENSION
100
AcDbLine
 10
45.74999999999998
 20
46.0
 30
0.0
 11
45.74999999999998
 21
44.00000000000001
 31
0.0
  0
INSERT
  5
1464
330
145F
100
AcDbEntity
  8
DIMENSION
100
AcDbBlockReference
  2
_OPEN30
 10
45.74999999999998
 20
47.00000000000001
 30
0.0
 50
90.0
  0
INSERT
  5
1465
330
145F
100
AcDbEntity
  8
DIMENSION
100
AcDbBlockReference
  2
_OPEN30
 10
45.74999999999998
 20
43.0
 30
0.0
 50
270.0
  0
INSERT
  5
1467
330
145F
100
AcDbEntity
  8
0
100
AcDbBlockReference
  2
*U68
 10
0.0
 20
0.0
 30
0.0
  0
POINT
  5
1468
330
145F
100
AcDbEntity
  8
DEFPOINTS
 62
     0
100
AcDbPoint
 10
50.25
 20
47.0
 30
0.0
  0
POINT
  5
1469
330
145F
100
AcDbEntity
  8
DEFPOINTS
 62
     0
100
AcDbPoint
 10
59.25
 20
43.0
 30
0.0
  0
POINT
  5
146A
330
145F
100
AcDbEntity
  8
DEFPOINTS
 62
     0
100
AcDbPoint
 10
45.74999999999998
 20
43.0
 30
0.0
  0
ENDBLK
  5
146B
330
145F
100
AcDbEntity
  8
0
100
AcDbBlockEnd
  0
BLOCK
  5
1769
330
1466
100
AcDbEntity
  8
0
100
AcDbBlockBegin
  2
*U68
 70
     1
 10
0.0
 20
0.0
 30
0.0
  3
*U68
  1

  0
TEXT
  5
176A
330
1466
100
AcDbEntity
  8
DIMENSION
100
AcDbText
 10
45.24999999999997
 20
44.51649746192894
 30
0.0
 40
1.5
  1
4
 50
90.0
  7
GOTHIC
100
AcDbText
  0
ENDBLK
  5
176B
330
1466
100
AcDbEntity
  8
0
100
AcDbBlockEnd
  0
BLOCK
  5
146D
330
146C
100
AcDbEntity
  8
0
100
AcDbBlockBegin
  2
*D69
 70
     1
 10
0.0
 20
0.0
 30
0.0
  3
*D69
  1

  0
LINE
  5
146E
330
146C
100
AcDbEntity
  8
DIMENSION
100
AcDbLine
 10
74.66440319370545
 20
74.46476421629673
 30
0.0
 11
73.83559680629457
 21
72.5352357837032
 31
0.0
  0
LINE
  5
146F
330
146C
100
AcDbEntity
  8
DIMENSION
100
AcDbLine
 10
73.44092709800368
 20
71.6164127205634
 30
0.0
 11
69.73984771573603
 21
63.00000000000004
 31
0.0
  0
LINE
  5
1470
330
146C
100
AcDbEntity
  8
DIMENSION
100
AcDbLine
 10
69.73984771573603
 20
63.00000000000004
 30
0.0
 11
65.76015228426395
 21
63.00000000000002
 31
0.0
  0
INSERT
  5
1471
330
146C
100
AcDbEntity
  8
DIMENSION
100
AcDbBlockReference
  2
_OPEN30
 10
75.05907290199634
 20
75.38358727943656
 30
0.0
 50
66.75462379169428
  0
INSERT
  5
1472
330
146C
100
AcDbEntity
  8
DIMENSION
100
AcDbBlockReference
  2
_OPEN30
 10
73.44092709800368
 20
71.6164127205634
 30
0.0
 50
246.7546237916943
  0
INSERT
  5
1474
330
146C
100
AcDbEntity
  8
0
100
AcDbBlockReference
  2
*U70
 10
0.0
 20
0.0
 30
0.0
  0
POINT
  5
1475
330
146C
100
AcDbEntity
  8
DEFPOINTS
 62
     0
100
AcDbPoint
 10
73.44092709800368
 20
71.6164127205634
 30
0.0
  0
POINT
  5
1476
330
146C
100
AcDbEntity
  8
DEFPOINTS
 62
     0
100
AcDbPoint
 10
75.05907290199634
 20
75.38358727943656
 30
0.0
  0
ENDBLK
  5
1477
330
146C
100
AcDbEntity
  8
0
100
AcDbBlockEnd
  0
BLOCK
  5
1774
330
1473
100
AcDbEntity
  8
0
100
AcDbBlockBegin
  2
*U70
 70
     1
 10
0.0
 20
0.0
 30
0.0
  3
*U70
  1

  0
TEXT
  5
1775
330
1473
100
AcDbEntity
  8
DIMENSION
100
AcDbText
 10
65.72208121827411
 20
63.50000000000004
 30
0.0
 40
1.5
  1
\U+22054.1
  7
GOTHIC
100
AcDbText
  0
ENDBLK
  5
1776
330
1473
100
AcDbEntity
  8
0
100
AcDbBlockEnd
  0
BLOCK
  5
1479
330
1478
100
AcDbEntity
  8
0
100
AcDbBlockBegin
  2
*D71
 70
     1
 10
0.0
 20
0.0
 30
0.0
  3
*D71
  1

  0
LINE
  5
147A
330
1478
100
AcDbEntity
  8
DIMENSION
 62
     3
100
AcDbLine
 10
97.20577136594005
 20
118.287643318496
 30
0.0
 11
87.73830926906766
 21
101.8895179479806
 31
0.0
  0
LINE
  5
147B
330
1478
100
AcDbEntity
  8
DIMENSION
 62
     3
100
AcDbLine
 10
112.7942286340599
 20
109.287643318496
 30
0.0
 11
103.3267665371874
 21
92.88951794798055
 31
0.0
  0
LINE
  5
147C
330
1478
100
AcDbEntity
  8
DIMENSION
 62
     3
100
AcDbLine
 10
89.35433467285205
 20
102.6885560536572
 30
0.0
 11
103.2107411334029
 21
94.68855605365723
 31
0.0
  0
INSERT
  5
147D
330
1478
100
AcDbEntity
  8
DIMENSION
 62
     3
100
AcDbBlockReference
  2
_OPEN30
 10
88.48830926906765
 20
103.1885560536572
 30
0.0
 50
149.9999999999998
  0
INSERT
  5
147E
330
1478
100
AcDbEntity
  8
DIMENSION
 62
     3
100
AcDbBlockReference
  2
_OPEN30
 10
104.0767665371874
 20
94.1885560536572
 30
0.0
 50
329.9999999999997
  0
INSERT
  5
1480
330
1478
100
AcDbEntity
  8
0
100
AcDbBlockReference
  2
*U72
 10
0.0
 20
0.0
 30
0.0
  0
POINT
  5
1481
330
1478
100
AcDbEntity
  8
DEFPOINTS
 62
     0
100
AcDbPoint
 10
97.20577136594005
 20
118.287643318496
 30
0.0
  0
POINT
  5
1482
330
1478
100
AcDbEntity
  8
DEFPOINTS
 62
     0
100
AcDbPoint
 10
112.7942286340599
 20
109.287643318496
 30
0.0
  0
POINT
  5
1483
330
1478
100
AcDbEntity
  8
DEFPOINTS
 62
     0
100
AcDbPoint
 10
104.0767665371874
 20
94.1885560536572
 30
0.0
  0
ENDBLK
  5
1484
330
1478
100
AcDbEntity
  8
0
100
AcDbBlockEnd
  0
BLOCK
  5
1777
330
147F
100
AcDbEntity
  8
0
100
AcDbBlockBegin
  2
*U72
 70
     1
 10
0.0
 20
0.0
 30
0.0
  3
*U72
  1

  0
TEXT
  5
1778
330
147F
100
AcDbEntity
  8
DIMENSION
 62
     3
100
AcDbText
 10
94.83769019696557
 20
100.3814378894664
 30
0.0
 40
1.5
  1
φ18
 50
329.9999999999997
  7
GOTHIC
100
AcDbText
  0
ENDBLK
  5
1779
330
147F
100
AcDbEntity
  8
0
100
AcDbBlockEnd
  0
BLOCK
  5
1486
330
1485
100
AcDbEntity
  8
0
100
AcDbBlockBegin
  2
*D73
 70
     1
 10
0.0
 20
0.0
 30
0.0
  3
*D73
  1

  0
LINE
  5
1487
330
1485
100
AcDbEntity
  8
DIMENSION
 62
     3
100
AcDbLine
 10
81.0
 20
114.787643318496
 30
0.0
 11
81.0
 21
133.4999999999999
 31
0.0
  0
LINE
  5
1488
330
1485
100
AcDbEntity
  8
DIMENSION
 62
     3
100
AcDbLine
 10
140.0
 20
114.787643318496
 30
0.0
 11
140.0
 21
133.4999999999999
 31
0.0
  0
LINE
  5
1489
330
1485
100
AcDbEntity
  8
DIMENSION
 62
     3
100
AcDbLine
 10
82.0
 20
132.0
 30
0.0
 11
139.0
 21
132.0
 31
0.0
  0
INSERT
  5
148A
330
1485
100
AcDbEntity
  8
DIMENSION
 62
     3
100
AcDbBlockReference
  2
_OPEN30
 10
81.0
 20
132.0
 30
0.0
 50
180.0
  0
INSERT
  5
148B
330
1485
100
AcDbEntity
  8
DIMENSION
 62
     3
100
AcDbBlockReference
  2
_OPEN30
 10
140.0
 20
132.0
 30
0.0
  0
INSERT
  5
148D
330
1485
100
AcDbEntity
  8
0
100
AcDbBlockReference
  2
*U74
 10
0.0
 20
0.0
 30
0.0
  0
POINT
  5
148E
330
1485
100
AcDbEntity
  8
DEFPOINTS
 62
     0
100
AcDbPoint
 10
81.0
 20
114.787643318496
 30
0.0
  0
POINT
  5
148F
330
1485
100
AcDbEntity
  8
DEFPOINTS
 62
     0
100
AcDbPoint
 10
140.0
 20
114.787643318496
 30
0.0
  0
POINT
  5
1490
330
1485
100
AcDbEntity
  8
DEFPOINTS
 62
     0
100
AcDbPoint
 10
140.0
 20
132.0
 30
0.0
  0
ENDBLK
  5
1491
330
1485
100
AcDbEntity
  8
0
100
AcDbBlockEnd
  0
BLOCK
  5
177A
330
148C
100
AcDbEntity
  8
0
100
AcDbBlockBegin
  2
*U74
 70
     1
 10
0.0
 20
0.0
 30
0.0
  3
*U74
  1

  0
TEXT
  5
177B
330
148C
100
AcDbEntity
  8
DIMENSION
 62
     3
100
AcDbText
 10
109.5406091370557
 20
132.4999999999999
 30
0.0
 40
1.5
  1
59
  7
GOTHIC
100
AcDbText
  0
ENDBLK
  5
177C
330
148C
100
AcDbEntity
  8
0
100
AcDbBlockEnd
  0
BLOCK
  5
1493
330
1492
100
AcDbEntity
  8
0
100
AcDbBlockBegin
  2
*D75
 70
     1
 10
0.0
 20
0.0
 30
0.0
  3
*D75
  1

  0
LINE
  5
1494
330
1492
100
AcDbEntity
  8
DIMENSION
 62
     3
100
AcDbLine
 10
140.0
 20
114.787643318496
 30
0.0
 11
145.5
 21
114.787643318496
 31
0.0
  0
LINE
  5
1495
330
1492
100
AcDbEntity
  8
DIMENSION
 62
     3
100
AcDbLine
 10
140.0
 20
112.787643318496
 30
0.0
 11
145.5
 21
112.787643318496
 31
0.0
  0
LINE
  5
1496
330
1492
100
AcDbEntity
  8
DIMENSION
 62
     3
100
AcDbLine
 10
144.0
 20
115.787643318496
 30
0.0
 11
144.0
 21
116.787643318496
 31
0.0
  0
LINE
  5
1497
330
1492
100
AcDbEntity
  8
DIMENSION
 62
     3
100
AcDbLine
 10
144.0
 20
111.7876433184959
 30
0.0
 11
144.0
 21
110.7876433184959
 31
0.0
  0
LINE
  5
1498
330
1492
100
AcDbEntity
  8
DIMENSION
 62
     3
100
AcDbLine
 10
144.0
 20
114.787643318496
 30
0.0
 11
144.0
 21
112.787643318496
 31
0.0
  0
INSERT
  5
1499
330
1492
100
AcDbEntity
  8
DIMENSION
 62
     3
100
AcDbBlockReference
  2
_OPEN30
 10
144.0
 20
114.787643318496
 30
0.0
 50
270.0
  0
INSERT
  5
149A
330
1492
100
AcDbEntity
  8
DIMENSION
 62
     3
100
AcDbBlockReference
  2
_OPEN30
 10
144.0
 20
112.787643318496
 30
0.0
 50
90.0
  0
INSERT
  5
149C
330
1492
100
AcDbEntity
  8
0
100
AcDbBlockReference
  2
*U76
 10
0.0
 20
0.0
 30
0.0
  0
POINT
  5
149D
330
1492
100
AcDbEntity
  8
DEFPOINTS
 62
     0
100
AcDbPoint
 10
140.0
 20
114.787643318496
 30
0.0
  0
POINT
  5
149E
330
1492
100
AcDbEntity
  8
DEFPOINTS
 62
     0
100
AcDbPoint
 10
140.0
 20
112.787643318496
 30
0.0
  0
POINT
  5
149F
330
1492
100
AcDbEntity
  8
DEFPOINTS
 62
     0
100
AcDbPoint
 10
144.0
 20
112.787643318496
 30
0.0
  0
ENDBLK
  5
14A0
330
1492
100
AcDbEntity
  8
0
100
AcDbBlockEnd
  0
BLOCK
  5
177D
330
149B
100
AcDbEntity
  8
0
100
AcDbBlockBegin
  2
*U76
 70
     1
 10
0.0
 20
0.0
 30
0.0
  3
*U76
  1

  0
TEXT
  5
177E
330
149B
100
AcDbEntity
  8
DIMENSION
 62
     3
100
AcDbText
 10
143.5
 20
113.307947887024
 30
0.0
 40
1.5
  1
2
 50
90.0
  7
GOTHIC
100
AcDbText
  0
ENDBLK
  5
177F
330
149B
100
AcDbEntity
  8
0
100
AcDbBlockEnd
  0
BLOCK
  5
14A2
330
14A1
100
AcDbEntity
  8
0
100
AcDbBlockBegin
  2
*D77
 70
     1
 10
0.0
 20
0.0
 30
0.0
  3
*D77
  1

  0
LINE
  5
14A3
330
14A1
100
AcDbEntity
  8
DIMENSION
 62
     3
100
AcDbLine
 10
136.4999999999999
 20
117.2876433184959
 30
0.0
 11
150.0
 21
117.2876433184959
 31
0.0
  0
LINE
  5
14A4
330
14A1
100
AcDbEntity
  8
DIMENSION
 62
     3
100
AcDbLine
 10
136.4999999999999
 20
110.2876433184959
 30
0.0
 11
150.0
 21
110.2876433184959
 31
0.0
  0
LINE
  5
14A5
330
14A1
100
AcDbEntity
  8
DIMENSION
 62
     3
100
AcDbLine
 10
148.5
 20
116.2876433184959
 30
0.0
 11
148.5
 21
111.2876433184959
 31
0.0
  0
INSERT
  5
14A6
330
14A1
100
AcDbEntity
  8
DIMENSION
 62
     3
100
AcDbBlockReference
  2
_OPEN30
 10
148.5
 20
117.2876433184959
 30
0.0
 50
90.0
  0
INSERT
  5
14A7
330
14A1
100
AcDbEntity
  8
DIMENSION
 62
     3
100
AcDbBlockReference
  2
_OPEN30
 10
148.5
 20
110.2876433184959
 30
0.0
 50
270.0
  0
INSERT
  5
14A9
330
14A1
100
AcDbEntity
  8
0
100
AcDbBlockReference
  2
*U78
 10
0.0
 20
0.0
 30
0.0
  0
POINT
  5
14AA
330
14A1
100
AcDbEntity
  8
DEFPOINTS
 62
     0
100
AcDbPoint
 10
136.4999999999999
 20
117.2876433184959
 30
0.0
  0
POINT
  5
14AB
330
14A1
100
AcDbEntity
  8
DEFPOINTS
 62
     0
100
AcDbPoint
 10
136.4999999999999
 20
110.2876433184959
 30
0.0
  0
POINT
  5
14AC
330
14A1
100
AcDbEntity
  8
DEFPOINTS
 62
     0
100
AcDbPoint
 10
148.5
 20
110.2876433184959
 30
0.0
  0
ENDBLK
  5
14AD
330
14A1
100
AcDbEntity
  8
0
100
AcDbBlockEnd
  0
BLOCK
  5
1780
330
14A8
100
AcDbEntity
  8
0
100
AcDbBlockBegin
  2
*U78
 70
     1
 10
0.0
 20
0.0
 30
0.0
  3
*U78
  1

  0
TEXT
  5
1781
330
14A8
100
AcDbEntity
  8
DIMENSION
 62
     3
100
AcDbText
 10
147.9999999999998
 20
113.3041407804249
 30
0.0
 40
1.5
  1
7
 50
90.0
  7
GOTHIC
100
AcDbText
  0
ENDBLK
  5
1782
330
14A8
100
AcDbEntity
  8
0
100
AcDbBlockEnd
  0
BLOCK
  5
14AF
330
14AE
100
AcDbEntity
  8
0
100
AcDbBlockBegin
  2
*D79
 70
     1
 10
0.0
 20
0.0
 30
0.0
  3
*D79
  1

  0
LINE
  5
14B0
330
14AE
100
AcDbEntity
  8
DIMENSION
 62
     3
100
AcDbLine
 10
124.5
 20
115.537643318496
 30
0.0
 11
124.5
 21
116.537643318496
 31
0.0
  0
LINE
  5
14B1
330
14AE
100
AcDbEntity
  8
DIMENSION
 62
     3
100
AcDbLine
 10
124.5
 20
112.0376433184959
 30
0.0
 11
124.5
 21
111.0376433184959
 31
0.0
  0
INSERT
  5
14B3
330
14AE
100
AcDbEntity
  8
0
100
AcDbBlockReference
  2
*U80
 10
0.0
 20
0.0
 30
0.0
  0
LINE
  5
14B4
330
14AE
100
AcDbEntity
  8
DIMENSION
 62
     3
100
AcDbLine
 10
124.5
 20
114.537643318496
 30
0.0
 11
124.5
 21
113.0376433184959
 31
0.0
  0
INSERT
  5
14B5
330
14AE
100
AcDbEntity
  8
DIMENSION
 62
     3
100
AcDbBlockReference
  2
_OPEN30
 10
124.5
 20
114.537643318496
 30
0.0
 50
270.0
  0
INSERT
  5
14B6
330
14AE
100
AcDbEntity
  8
DIMENSION
 62
     3
100
AcDbBlockReference
  2
_OPEN30
 10
124.5
 20
113.0376433184959
 30
0.0
 50
90.0
  0
POINT
  5
14B7
330
14AE
100
AcDbEntity
  8
DEFPOINTS
 62
     0
100
AcDbPoint
 10
120.0
 20
114.537643318496
 30
0.0
  0
POINT
  5
14B8
330
14AE
100
AcDbEntity
  8
DEFPOINTS
 62
     0
100
AcDbPoint
 10
120.0
 20
113.0376433184959
 30
0.0
  0
POINT
  5
14B9
330
14AE
100
AcDbEntity
  8
DEFPOINTS
 62
     0
100
AcDbPoint
 10
124.5
 20
113.0376433184959
 30
0.0
  0
ENDBLK
  5
14BA
330
14AE
100
AcDbEntity
  8
0
100
AcDbBlockEnd
  0
BLOCK
  5
1783
330
14B2
100
AcDbEntity
  8
0
100
AcDbBlockBegin
  2
*U80
 70
     1
 10
0.0
 20
0.0
 30
0.0
  3
*U80
  1

  0
TEXT
  5
1784
330
14B2
100
AcDbEntity
  8
DIMENSION
 62
     3
100
AcDbText
 10
123.9599410972113
 20
115.319645111287
 30
0.0
 40
1.5
  1
1.5
 50
90.0
  7
GOTHIC
100
AcDbText
  0
ENDBLK
  5
1785
330
14B2
100
AcDbEntity
  8
0
100
AcDbBlockEnd
  0
BLOCK
  5
14BC
330
14BB
100
AcDbEntity
  8
0
100
AcDbBlockBegin
  2
*D81
 70
     1
 10
0.0
 20
0.0
 30
0.0
  3
*D81
  1

  0
LINE
  5
14BD
330
14BB
100
AcDbEntity
  8
DIMENSION
 62
     3
100
AcDbLine
 10
81.0
 20
114.787643318496
 30
0.0
 11
75.0
 21
114.787643318496
 31
0.0
  0
LINE
  5
14BE
330
14BB
100
AcDbEntity
  8
DIMENSION
 62
     3
100
AcDbLine
 10
81.0
 20
112.787643318496
 30
0.0
 11
75.0
 21
112.787643318496
 31
0.0
  0
LINE
  5
14BF
330
14BB
100
AcDbEntity
  8
DIMENSION
 62
     3
100
AcDbLine
 10
76.5
 20
115.787643318496
 30
0.0
 11
76.5
 21
116.787643318496
 31
0.0
  0
LINE
  5
14C0
330
14BB
100
AcDbEntity
  8
DIMENSION
 62
     3
100
AcDbLine
 10
76.5
 20
111.787643318496
 30
0.0
 11
76.5
 21
110.787643318496
 31
0.0
  0
LINE
  5
14C1
330
14BB
100
AcDbEntity
  8
DIMENSION
 62
     3
100
AcDbLine
 10
76.5
 20
114.787643318496
 30
0.0
 11
76.5
 21
112.787643318496
 31
0.0
  0
INSERT
  5
14C2
330
14BB
100
AcDbEntity
  8
DIMENSION
 62
     3
100
AcDbBlockReference
  2
_OPEN30
 10
76.5
 20
114.787643318496
 30
0.0
 50
270.0
  0
INSERT
  5
14C3
330
14BB
100
AcDbEntity
  8
DIMENSION
 62
     3
100
AcDbBlockReference
  2
_OPEN30
 10
76.5
 20
112.787643318496
 30
0.0
 50
90.0
  0
INSERT
  5
14C5
330
14BB
100
AcDbEntity
  8
0
100
AcDbBlockReference
  2
*U82
 10
0.0
 20
0.0
 30
0.0
  0
POINT
  5
14C6
330
14BB
100
AcDbEntity
  8
DEFPOINTS
 62
     0
100
AcDbPoint
 10
81.0
 20
114.787643318496
 30
0.0
  0
POINT
  5
14C7
330
14BB
100
AcDbEntity
  8
DEFPOINTS
 62
     0
100
AcDbPoint
 10
81.0
 20
112.787643318496
 30
0.0
  0
POINT
  5
14C8
330
14BB
100
AcDbEntity
  8
DEFPOINTS
 62
     0
100
AcDbPoint
 10
76.5
 20
112.787643318496
 30
0.0
  0
ENDBLK
  5
14C9
330
14BB
100
AcDbEntity
  8
0
100
AcDbBlockEnd
  0
BLOCK
  5
1786
330
14C4
100
AcDbEntity
  8
0
100
AcDbBlockBegin
  2
*U82
 70
     1
 10
0.0
 20
0.0
 30
0.0
  3
*U82
  1

  0
TEXT
  5
1787
330
14C4
100
AcDbEntity
  8
DIMENSION
 62
     3
100
AcDbText
 10
75.99999999999997
 20
113.307947887024
 30
0.0
 40
1.5
  1
2
 50
90.0
  7
GOTHIC
100
AcDbText
  0
ENDBLK
  5
1788
330
14C4
100
AcDbEntity
  8
0
100
AcDbBlockEnd
  0
BLOCK
  5
14CB
330
14CA
100
AcDbEntity
  8
0
100
AcDbBlockBegin
  2
*D83
 70
     1
 10
0.0
 20
0.0
 30
0.0
  3
*D83
  1

  0
LINE
  5
14CC
330
14CA
100
AcDbEntity
  8
DIMENSION
 62
     3
100
AcDbLine
 10
105.0
 20
106.4999999999999
 30
0.0
 11
105.0
 21
100.5
 31
0.0
  0
LINE
  5
14CD
330
14CA
100
AcDbEntity
  8
DIMENSION
 62
     3
100
AcDbLine
 10
118.0
 20
108.787643318496
 30
0.0
 11
118.0
 21
100.5
 31
0.0
  0
LINE
  5
14CE
330
14CA
100
AcDbEntity
  8
DIMENSION
 62
     3
100
AcDbLine
 10
106.0
 20
102.0
 30
0.0
 11
117.0
 21
102.0
 31
0.0
  0
INSERT
  5
14CF
330
14CA
100
AcDbEntity
  8
DIMENSION
 62
     3
100
AcDbBlockReference
  2
_OPEN30
 10
105.0
 20
102.0
 30
0.0
 50
180.0
  0
INSERT
  5
14D0
330
14CA
100
AcDbEntity
  8
DIMENSION
 62
     3
100
AcDbBlockReference
  2
_OPEN30
 10
118.0
 20
102.0
 30
0.0
  0
INSERT
  5
14D2
330
14CA
100
AcDbEntity
  8
0
100
AcDbBlockReference
  2
*U84
 10
0.0
 20
0.0
 30
0.0
  0
POINT
  5
14D3
330
14CA
100
AcDbEntity
  8
DEFPOINTS
 62
     0
100
AcDbPoint
 10
105.0
 20
106.4999999999999
 30
0.0
  0
POINT
  5
14D4
330
14CA
100
AcDbEntity
  8
DEFPOINTS
 62
     0
100
AcDbPoint
 10
118.0
 20
108.787643318496
 30
0.0
  0
POINT
  5
14D5
330
14CA
100
AcDbEntity
  8
DEFPOINTS
 62
     0
100
AcDbPoint
 10
118.0
 20
102.0
 30
0.0
  0
ENDBLK
  5
14D6
330
14CA
100
AcDbEntity
  8
0
100
AcDbBlockEnd
  0
BLOCK
  5
1789
330
14D1
100
AcDbEntity
  8
0
100
AcDbBlockBegin
  2
*U84
 70
     1
 10
0.0
 20
0.0
 30
0.0
  3
*U84
  1

  0
TEXT
  5
178A
330
14D1
100
AcDbEntity
  8
DIMENSION
 62
     3
100
AcDbText
 10
110.4873096446699
 20
102.4999999999999
 30
0.0
 40
1.5
  1
13
  7
GOTHIC
100
AcDbText
  0
ENDBLK
  5
178B
330
14D1
100
AcDbEntity
  8
0
100
AcDbBlockEnd
  0
BLOCK
  5
14D8
330
14D7
100
AcDbEntity
  8
0
100
AcDbBlockBegin
  2
*D85
 70
     1
 10
0.0
 20
0.0
 30
0.0
  3
*D85
  1

  0
LINE
  5
14D9
330
14D7
100
AcDbEntity
  8
DIMENSION
 62
     3
100
AcDbLine
 10
137.0
 20
113.787643318496
 30
0.0
 11
137.0
 21
100.5
 31
0.0
  0
LINE
  5
14DA
330
14D7
100
AcDbEntity
  8
DIMENSION
 62
     3
100
AcDbLine
 10
140.0
 20
112.787643318496
 30
0.0
 11
140.0
 21
100.5
 31
0.0
  0
LINE
  5
14DB
330
14D7
100
AcDbEntity
  8
DIMENSION
 62
     3
100
AcDbLine
 10
136.0
 20
102.0
 30
0.0
 11
135.0
 21
102.0
 31
0.0
  0
LINE
  5
14DC
330
14D7
100
AcDbEntity
  8
DIMENSION
 62
     3
100
AcDbLine
 10
141.0
 20
102.0
 30
0.0
 11
142.0
 21
102.0
 31
0.0
  0
LINE
  5
14DD
330
14D7
100
AcDbEntity
  8
DIMENSION
 62
     3
100
AcDbLine
 10
137.0
 20
102.0
 30
0.0
 11
140.0
 21
102.0
 31
0.0
  0
INSERT
  5
14DE
330
14D7
100
AcDbEntity
  8
DIMENSION
 62
     3
100
AcDbBlockReference
  2
_OPEN30
 10
137.0
 20
102.0
 30
0.0
  0
INSERT
  5
14DF
330
14D7
100
AcDbEntity
  8
DIMENSION
 62
     3
100
AcDbBlockReference
  2
_OPEN30
 10
140.0
 20
102.0
 30
0.0
 50
180.0
  0
INSERT
  5
14E1
330
14D7
100
AcDbEntity
  8
0
100
AcDbBlockReference
  2
*U86
 10
0.0
 20
0.0
 30
0.0
  0
POINT
  5
14E2
330
14D7
100
AcDbEntity
  8
DEFPOINTS
 62
     0
100
AcDbPoint
 10
137.0
 20
113.787643318496
 30
0.0
  0
POINT
  5
14E3
330
14D7
100
AcDbEntity
  8
DEFPOINTS
 62
     0
100
AcDbPoint
 10
140.0
 20
112.787643318496
 30
0.0
  0
POINT
  5
14E4
330
14D7
100
AcDbEntity
  8
DEFPOINTS
 62
     0
100
AcDbPoint
 10
140.0
 20
102.0
 30
0.0
  0
ENDBLK
  5
14E5
330
14D7
100
AcDbEntity
  8
0
100
AcDbBlockEnd
  0
BLOCK
  5
178C
330
14E0
100
AcDbEntity
  8
0
100
AcDbBlockBegin
  2
*U86
 70
     1
 10
0.0
 20
0.0
 30
0.0
  3
*U86
  1

  0
TEXT
  5
178D
330
14E0
100
AcDbEntity
  8
DIMENSION
 62
     3
100
AcDbText
 10
138.0279187817258
 20
102.4999999999999
 30
0.0
 40
1.5
  1
3
  7
GOTHIC
100
AcDbText
  0
ENDBLK
  5
178E
330
14E0
100
AcDbEntity
  8
0
100
AcDbBlockEnd
  0
BLOCK
  5
14E7
330
14E6
100
AcDbEntity
  8
0
100
AcDbBlockBegin
  2
*D87
 70
     1
 10
0.0
 20
0.0
 30
0.0
  3
*D87
  1

  0
LINE
  5
14E8
330
14E6
100
AcDbEntity
  8
DIMENSION
 62
     3
100
AcDbLine
 10
35.85164880763444
 20
119.537643318496
 30
0.0
 11
30.0
 21
119.537643318496
 31
0.0
  0
LINE
  5
14E9
330
14E6
100
AcDbEntity
  8
DIMENSION
 62
     3
100
AcDbLine
 10
35.85164880763444
 20
108.037643318496
 30
0.0
 11
30.0
 21
108.037643318496
 31
0.0
  0
LINE
  5
14EA
330
14E6
100
AcDbEntity
  8
DIMENSION
 62
     3
100
AcDbLine
 10
31.5
 20
118.537643318496
 30
0.0
 11
31.5
 21
109.037643318496
 31
0.0
  0
INSERT
  5
14EB
330
14E6
100
AcDbEntity
  8
DIMENSION
 62
     3
100
AcDbBlockReference
  2
_OPEN30
 10
31.5
 20
119.537643318496
 30
0.0
 50
90.0
  0
INSERT
  5
14EC
330
14E6
100
AcDbEntity
  8
DIMENSION
 62
     3
100
AcDbBlockReference
  2
_OPEN30
 10
31.5
 20
108.037643318496
 30
0.0
 50
270.0
  0
INSERT
  5
14EE
330
14E6
100
AcDbEntity
  8
0
100
AcDbBlockReference
  2
*U88
 10
0.0
 20
0.0
 30
0.0
  0
POINT
  5
14EF
330
14E6
100
AcDbEntity
  8
DEFPOINTS
 62
     0
100
AcDbPoint
 10
35.85164880763444
 20
119.537643318496
 30
0.0
  0
POINT
  5
14F0
330
14E6
100
AcDbEntity
  8
DEFPOINTS
 62
     0
100
AcDbPoint
 10
35.85164880763444
 20
108.037643318496
 30
0.0
  0
POINT
  5
14F1
330
14E6
100
AcDbEntity
  8
DEFPOINTS
 62
     0
100
AcDbPoint
 10
31.5
 20
108.037643318496
 30
0.0
  0
ENDBLK
  5
14F2
330
14E6
100
AcDbEntity
  8
0
100
AcDbBlockEnd
  0
BLOCK
  5
178F
330
14ED
100
AcDbEntity
  8
0
100
AcDbBlockBegin
  2
*U88
 70
     1
 10
0.0
 20
0.0
 30
0.0
  3
*U88
  1

  0
TEXT
  5
1790
330
14ED
100
AcDbEntity
  8
DIMENSION
 62
     3
100
AcDbText
 10
30.99999999999997
 20
111.800333673826
 30
0.0
 40
1.5
  1
11.5
 50
90.0
  7
GOTHIC
100
AcDbText
  0
ENDBLK
  5
1791
330
14ED
100
AcDbEntity
  8
0
100
AcDbBlockEnd
  0
BLOCK
  5
14F4
330
14F3
100
AcDbEntity
  8
0
100
AcDbBlockBegin
  2
*D89
 70
     1
 10
0.0
 20
0.0
 30
0.0
  3
*D89
  1

  0
LINE
  5
14F5
330
14F3
100
AcDbEntity
  8
DIMENSION
 62
     3
100
AcDbLine
 10
97.63878406783227
 20
118.037643318496
 30
0.0
 11
90.01006573271018
 21
104.8243155654324
 31
0.0
  0
LINE
  5
14F6
330
14F3
100
AcDbEntity
  8
DIMENSION
 62
     3
100
AcDbLine
 10
112.3612159321677
 20
109.537643318496
 30
0.0
 11
104.7324975970455
 21
96.32431556543238
 31
0.0
  0
LINE
  5
14F7
330
14F3
100
AcDbEntity
  8
DIMENSION
 62
     3
100
AcDbLine
 10
91.62609113649459
 20
105.623353671109
 30
0.0
 11
104.616472193261
 21
98.12335367110904
 31
0.0
  0
INSERT
  5
14F8
330
14F3
100
AcDbEntity
  8
DIMENSION
 62
     3
100
AcDbBlockReference
  2
_OPEN30
 10
90.76006573271014
 20
106.123353671109
 30
0.0
 50
149.9999999999998
  0
INSERT
  5
14F9
330
14F3
100
AcDbEntity
  8
DIMENSION
 62
     3
100
AcDbBlockReference
  2
_OPEN30
 10
105.4824975970455
 20
97.62335367110905
 30
0.0
 50
329.9999999999997
  0
INSERT
  5
14FB
330
14F3
100
AcDbEntity
  8
0
100
AcDbBlockReference
  2
*U90
 10
0.0
 20
0.0
 30
0.0
  0
POINT
  5
14FC
330
14F3
100
AcDbEntity
  8
DEFPOINTS
 62
     0
100
AcDbPoint
 10
97.63878406783227
 20
118.037643318496
 30
0.0
  0
POINT
  5
14FD
330
14F3
100
AcDbEntity
  8
DEFPOINTS
 62
     0
100
AcDbPoint
 10
112.3612159321677
 20
109.537643318496
 30
0.0
  0
POINT
  5
14FE
330
14F3
100
AcDbEntity
  8
DEFPOINTS
 62
     0
100
AcDbPoint
 10
105.4824975970455
 20
97.62335367110905
 30
0.0
  0
ENDBLK
  5
14FF
330
14F3
100
AcDbEntity
  8
0
100
AcDbBlockEnd
  0
BLOCK
  5
1792
330
14FA
100
AcDbEntity
  8
0
100
AcDbBlockBegin
  2
*U90
 70
     1
 10
0.0
 20
0.0
 30
0.0
  3
*U90
  1

  0
TEXT
  5
1793
330
14FA
100
AcDbEntity
  8
DIMENSION
 62
     3
100
AcDbText
 10
96.68962216283441
 20
103.5586212937202
 30
0.0
 40
1.5
  1
φ17
 50
329.9999999999997
  7
GOTHIC
100
AcDbText
  0
ENDBLK
  5
1794
330
14FA
100
AcDbEntity
  8
0
100
AcDbBlockEnd
  0
BLOCK
  5
1501
330
1500
100
AcDbEntity
  8
0
100
AcDbBlockBegin
  2
*D91
 70
     1
 10
0.0
 20
0.0
 30
0.0
  3
*D91
  1

  0
LINE
  5
1502
330
1500
100
AcDbEntity
  8
DIMENSION
 62
     3
100
AcDbLine
 10
113.0
 20
119.537643318496
 30
0.0
 11
113.0
 21
124.5
 31
0.0
  0
LINE
  5
1503
330
1500
100
AcDbEntity
  8
DIMENSION
 62
     3
100
AcDbLine
 10
106.0
 20
123.0
 30
0.0
 11
112.0
 21
123.0
 31
0.0
  0
INSERT
  5
1504
330
1500
100
AcDbEntity
  8
DIMENSION
 62
     3
100
AcDbBlockReference
  2
_OPEN30
 10
105.0
 20
123.0
 30
0.0
 50
180.0
  0
INSERT
  5
1505
330
1500
100
AcDbEntity
  8
DIMENSION
 62
     3
100
AcDbBlockReference
  2
_OPEN30
 10
113.0
 20
123.0
 30
0.0
  0
INSERT
  5
1507
330
1500
100
AcDbEntity
  8
0
100
AcDbBlockReference
  2
*U92
 10
0.0
 20
0.0
 30
0.0
  0
POINT
  5
1508
330
1500
100
AcDbEntity
  8
DEFPOINTS
 62
     0
100
AcDbPoint
 10
105.0
 20
121.232606342322
 30
0.0
  0
POINT
  5
1509
330
1500
100
AcDbEntity
  8
DEFPOINTS
 62
     0
100
AcDbPoint
 10
113.0
 20
119.537643318496
 30
0.0
  0
POINT
  5
150A
330
1500
100
AcDbEntity
  8
DEFPOINTS
 62
     0
100
AcDbPoint
 10
113.0
 20
123.0
 30
0.0
  0
ENDBLK
  5
150B
330
1500
100
AcDbEntity
  8
0
100
AcDbBlockEnd
  0
BLOCK
  5
1795
330
1506
100
AcDbEntity
  8
0
100
AcDbBlockBegin
  2
*U92
 70
     1
 10
0.0
 20
0.0
 30
0.0
  3
*U92
  1

  0
TEXT
  5
1796
330
1506
100
AcDbEntity
  8
DIMENSION
 62
     3
100
AcDbText
 10
108.5203045685279
 20
123.5
 30
0.0
 40
1.5
  1
8
  7
GOTHIC
100
AcDbText
  0
ENDBLK
  5
1797
330
1506
100
AcDbEntity
  8
0
100
AcDbBlockEnd
  0
BLOCK
  5
150D
330
150C
100
AcDbEntity
  8
0
100
AcDbBlockBegin
  2
*D93
 70
     1
 10
0.0
 20
0.0
 30
0.0
  3
*D93
  1

  0
LINE
  5
150E
330
150C
100
AcDbEntity
  8
DIMENSION
 62
     3
100
AcDbLine
 10
113.0
 20
119.537643318496
 30
0.0
 11
113.0
 21
124.5
 31
0.0
  0
LINE
  5
150F
330
150C
100
AcDbEntity
  8
DIMENSION
 62
     3
100
AcDbLine
 10
136.4999999999999
 20
117.2876433184959
 30
0.0
 11
136.4999999999999
 21
124.5
 31
0.0
  0
LINE
  5
1510
330
150C
100
AcDbEntity
  8
DIMENSION
 62
     3
100
AcDbLine
 10
114.0
 20
123.0
 30
0.0
 11
135.4999999999999
 21
123.0
 31
0.0
  0
INSERT
  5
1511
330
150C
100
AcDbEntity
  8
DIMENSION
 62
     3
100
AcDbBlockReference
  2
_OPEN30
 10
113.0
 20
123.0
 30
0.0
 50
180.0
  0
INSERT
  5
1512
330
150C
100
AcDbEntity
  8
DIMENSION
 62
     3
100
AcDbBlockReference
  2
_OPEN30
 10
136.4999999999999
 20
123.0
 30
0.0
  0
INSERT
  5
1514
330
150C
100
AcDbEntity
  8
0
100
AcDbBlockReference
  2
*U94
 10
0.0
 20
0.0
 30
0.0
  0
POINT
  5
1515
330
150C
100
AcDbEntity
  8
DEFPOINTS
 62
     0
100
AcDbPoint
 10
113.0
 20
119.537643318496
 30
0.0
  0
POINT
  5
1516
330
150C
100
AcDbEntity
  8
DEFPOINTS
 62
     0
100
AcDbPoint
 10
136.4999999999999
 20
117.2876433184959
 30
0.0
  0
POINT
  5
1517
330
150C
100
AcDbEntity
  8
DEFPOINTS
 62
     0
100
AcDbPoint
 10
136.4999999999999
 20
123.0
 30
0.0
  0
ENDBLK
  5
1518
330
150C
100
AcDbEntity
  8
0
100
AcDbBlockEnd
  0
BLOCK
  5
1798
330
1513
100
AcDbEntity
  8
0
100
AcDbBlockBegin
  2
*U94
 70
     1
 10
0.0
 20
0.0
 30
0.0
  3
*U94
  1

  0
TEXT
  5
1799
330
1513
100
AcDbEntity
  8
DIMENSION
 62
     3
100
AcDbText
 10
122.8121827411166
 20
123.5
 30
0.0
 40
1.5
  1
23.5
  7
GOTHIC
100
AcDbText
  0
ENDBLK
  5
179A
330
1513
100
AcDbEntity
  8
0
100
AcDbBlockEnd
  0
BLOCK
  5
151A
330
1519
100
AcDbEntity
  8
0
100
AcDbBlockBegin
  2
*D95
 70
     1
 10
0.0
 20
0.0
 30
0.0
  3
*D95
  1

  0
LINE
  5
151B
330
1519
100
AcDbEntity
  8
DIMENSION
 62
     3
100
AcDbLine
 10
136.4999999999999
 20
117.2876433184959
 30
0.0
 11
136.4999999999999
 21
124.5
 31
0.0
  0
LINE
  5
151C
330
1519
100
AcDbEntity
  8
DIMENSION
 62
     3
100
AcDbLine
 10
137.5
 20
123.0
 30
0.0
 11
139.0
 21
123.0
 31
0.0
  0
INSERT
  5
151E
330
1519
100
AcDbEntity
  8
0
100
AcDbBlockReference
  2
*U96
 10
0.0
 20
0.0
 30
0.0
  0
INSERT
  5
151F
330
1519
100
AcDbEntity
  8
DIMENSION
 62
     3
100
AcDbBlockReference
  2
_OPEN30
 10
136.4999999999999
 20
123.0
 30
0.0
 50
180.0
  0
INSERT
  5
1520
330
1519
100
AcDbEntity
  8
DIMENSION
 62
     3
100
AcDbBlockReference
  2
_OPEN30
 10
140.0
 20
123.0
 30
0.0
  0
POINT
  5
1521
330
1519
100
AcDbEntity
  8
DEFPOINTS
 62
     0
100
AcDbPoint
 10
136.4999999999999
 20
117.2876433184959
 30
0.0
  0
POINT
  5
1522
330
1519
100
AcDbEntity
  8
DEFPOINTS
 62
     0
100
AcDbPoint
 10
140.0
 20
114.787643318496
 30
0.0
  0
POINT
  5
1523
330
1519
100
AcDbEntity
  8
DEFPOINTS
 62
     0
100
AcDbPoint
 10
140.0
 20
123.0
 30
0.0
  0
ENDBLK
  5
1524
330
1519
100
AcDbEntity
  8
0
100
AcDbBlockEnd
  0
BLOCK
  5
179B
330
151D
100
AcDbEntity
  8
0
100
AcDbBlockBegin
  2
*U96
 70
     1
 10
0.0
 20
0.0
 30
0.0
  3
*U96
  1

  0
TEXT
  5
179C
330
151D
100
AcDbEntity
  8
DIMENSION
 62
     3
100
AcDbText
 10
136.8056759971149
 20
123.5117420527628
 30
0.0
 40
1.5
  1
3.5
  7
GOTHIC
100
AcDbText
  0
ENDBLK
  5
179D
330
151D
100
AcDbEntity
  8
0
100
AcDbBlockEnd
  0
BLOCK
  5
1526
330
1525
100
AcDbEntity
  8
0
100
AcDbBlockBegin
  2
*D97
 70
     1
 10
0.0
 20
0.0
 30
0.0
  3
*D97
  1

  0
LINE
  5
1527
330
1525
100
AcDbEntity
  8
DIMENSION
 62
     3
100
AcDbLine
 10
105.0
 20
121.232606342322
 30
0.0
 11
105.0
 21
129.0
 31
0.0
  0
LINE
  5
1528
330
1525
100
AcDbEntity
  8
DIMENSION
 62
     3
100
AcDbLine
 10
82.0
 20
127.5
 30
0.0
 11
104.0
 21
127.5
 31
0.0
  0
INSERT
  5
1529
330
1525
100
AcDbEntity
  8
DIMENSION
 62
     3
100
AcDbBlockReference
  2
_OPEN30
 10
81.0
 20
127.5
 30
0.0
 50
180.0
  0
INSERT
  5
152A
330
1525
100
AcDbEntity
  8
DIMENSION
 62
     3
100
AcDbBlockReference
  2
_OPEN30
 10
105.0
 20
127.5
 30
0.0
  0
INSERT
  5
152C
330
1525
100
AcDbEntity
  8
0
100
AcDbBlockReference
  2
*U98
 10
0.0
 20
0.0
 30
0.0
  0
POINT
  5
152D
330
1525
100
AcDbEntity
  8
DEFPOINTS
 62
     0
100
AcDbPoint
 10
81.0
 20
114.787643318496
 30
0.0
  0
POINT
  5
152E
330
1525
100
AcDbEntity
  8
DEFPOINTS
 62
     0
100
AcDbPoint
 10
105.0
 20
121.232606342322
 30
0.0
  0
POINT
  5
152F
330
1525
100
AcDbEntity
  8
DEFPOINTS
 62
     0
100
AcDbPoint
 10
105.0
 20
127.5
 30
0.0
  0
ENDBLK
  5
1530
330
1525
100
AcDbEntity
  8
0
100
AcDbBlockEnd
  0
BLOCK
  5
179E
330
152B
100
AcDbEntity
  8
0
100
AcDbBlockBegin
  2
*U98
 70
     1
 10
0.0
 20
0.0
 30
0.0
  3
*U98
  1

  0
TEXT
  5
179F
330
152B
100
AcDbEntity
  8
DIMENSION
 62
     3
100
AcDbText
 10
92.01395939086292
 20
128.0
 30
0.0
 40
1.5
  1
24
  7
GOTHIC
100
AcDbText
  0
ENDBLK
  5
17A0
330
152B
100
AcDbEntity
  8
0
100
AcDbBlockEnd
  0
BLOCK
  5
1532
330
1531
100
AcDbEntity
  8
0
100
AcDbBlockBegin
  2
*D99
 70
     1
 10
0.0
 20
0.0
 30
0.0
  3
*D99
  1

  0
LINE
  5
1533
330
1531
100
AcDbEntity
  8
DIMENSION
 62
     3
100
AcDbLine
 10
106.0
 20
127.5
 30
0.0
 11
139.0
 21
127.5
 31
0.0
  0
INSERT
  5
1534
330
1531
100
AcDbEntity
  8
DIMENSION
 62
     3
100
AcDbBlockReference
  2
_OPEN30
 10
105.0
 20
127.5
 30
0.0
 50
180.0
  0
INSERT
  5
1535
330
1531
100
AcDbEntity
  8
DIMENSION
 62
     3
100
AcDbBlockReference
  2
_OPEN30
 10
140.0
 20
127.5
 30
0.0
  0
INSERT
  5
1537
330
1531
100
AcDbEntity
  8
0
100
AcDbBlockReference
  2
*U100
 10
0.0
 20
0.0
 30
0.0
  0
POINT
  5
1538
330
1531
100
AcDbEntity
  8
DEFPOINTS
 62
     0
100
AcDbPoint
 10
105.0
 20
121.232606342322
 30
0.0
  0
POINT
  5
1539
330
1531
100
AcDbEntity
  8
DEFPOINTS
 62
     0
100
AcDbPoint
 10
140.0
 20
114.787643318496
 30
0.0
  0
POINT
  5
153A
330
1531
100
AcDbEntity
  8
DEFPOINTS
 62
     0
100
AcDbPoint
 10
140.0
 20
127.5
 30
0.0
  0
ENDBLK
  5
153B
330
1531
100
AcDbEntity
  8
0
100
AcDbBlockEnd
  0
BLOCK
  5
17A1
330
1536
100
AcDbEntity
  8
0
100
AcDbBlockBegin
  2
*U100
 70
     1
 10
0.0
 20
0.0
 30
0.0
  3
*U100
  1

  0
TEXT
  5
17A2
330
1536
100
AcDbEntity
  8
DIMENSION
 62
     3
100
AcDbText
 10
121.5406091370557
 20
128.0
 30
0.0
 40
1.5
  1
35
  7
GOTHIC
100
AcDbText
  0
ENDBLK
  5
17A3
330
1536
100
AcDbEntity
  8
0
100
AcDbBlockEnd
  0
BLOCK
  5
153D
330
153C
100
AcDbEntity
  8
0
100
AcDbBlockBegin
  2
*D101
 70
     1
 10
0.0
 20
0.0
 30
0.0
  3
*D101
  1

  0
LINE
  5
153E
330
153C
100
AcDbEntity
  8
DIMENSION
 62
     3
100
AcDbLine
 10
94.50000000000001
 20
119.537643318496
 30
0.0
 11
94.50000000000001
 21
124.5
 31
0.0
  0
LINE
  5
153F
330
153C
100
AcDbEntity
  8
DIMENSION
 62
     3
100
AcDbLine
 10
82.0
 20
123.0
 30
0.0
 11
93.49999999999999
 21
123.0
 31
0.0
  0
INSERT
  5
1540
330
153C
100
AcDbEntity
  8
DIMENSION
 62
     3
100
AcDbBlockReference
  2
_OPEN30
 10
81.0
 20
123.0
 30
0.0
 50
180.0
  0
INSERT
  5
1541
330
153C
100
AcDbEntity
  8
DIMENSION
 62
     3
100
AcDbBlockReference
  2
_OPEN30
 10
94.50000000000001
 20
123.0
 30
0.0
  0
INSERT
  5
1543
330
153C
100
AcDbEntity
  8
0
100
AcDbBlockReference
  2
*U102
 10
0.0
 20
0.0
 30
0.0
  0
POINT
  5
1544
330
153C
100
AcDbEntity
  8
DEFPOINTS
 62
     0
100
AcDbPoint
 10
81.0
 20
114.787643318496
 30
0.0
  0
POINT
  5
1545
330
153C
100
AcDbEntity
  8
DEFPOINTS
 62
     0
100
AcDbPoint
 10
94.50000000000001
 20
119.537643318496
 30
0.0
  0
POINT
  5
1546
330
153C
100
AcDbEntity
  8
DEFPOINTS
 62
     0
100
AcDbPoint
 10
94.50000000000001
 20
123.0
 30
0.0
  0
ENDBLK
  5
1547
330
153C
100
AcDbEntity
  8
0
100
AcDbBlockEnd
  0
BLOCK
  5
17A4
330
1542
100
AcDbEntity
  8
0
100
AcDbBlockBegin
  2
*U102
 70
     1
 10
0.0
 20
0.0
 30
0.0
  3
*U102
  1

  0
TEXT
  5
17A5
330
1542
100
AcDbEntity
  8
DIMENSION
 62
     3
100
AcDbText
 10
85.76269035532995
 20
123.5
 30
0.0
 40
1.5
  1
13.5
  7
GOTHIC
100
AcDbText
  0
ENDBLK
  5
17A6
330
1542
100
AcDbEntity
  8
0
100
AcDbBlockEnd
  0
BLOCK
  5
1549
330
1548
100
AcDbEntity
  8
0
100
AcDbBlockBegin
  2
*D103
 70
     1
 10
0.0
 20
0.0
 30
0.0
  3
*D103
  1

  0
LINE
  5
154A
330
1548
100
AcDbEntity
  8
DIMENSION
 62
     3
100
AcDbLine
 10
95.5
 20
123.0
 30
0.0
 11
104.0
 21
123.0
 31
0.0
  0
INSERT
  5
154B
330
1548
100
AcDbEntity
  8
DIMENSION
 62
     3
100
AcDbBlockReference
  2
_OPEN30
 10
94.50000000000001
 20
123.0
 30
0.0
 50
180.0
  0
INSERT
  5
154C
330
1548
100
AcDbEntity
  8
DIMENSION
 62
     3
100
AcDbBlockReference
  2
_OPEN30
 10
105.0
 20
123.0
 30
0.0
  0
INSERT
  5
154E
330
1548
100
AcDbEntity
  8
0
100
AcDbBlockReference
  2
*U104
 10
0.0
 20
0.0
 30
0.0
  0
POINT
  5
154F
330
1548
100
AcDbEntity
  8
DEFPOINTS
 62
     0
100
AcDbPoint
 10
94.50000000000001
 20
119.537643318496
 30
0.0
  0
POINT
  5
1550
330
1548
100
AcDbEntity
  8
DEFPOINTS
 62
     0
100
AcDbPoint
 10
105.0
 20
121.232606342322
 30
0.0
  0
POINT
  5
1551
330
1548
100
AcDbEntity
  8
DEFPOINTS
 62
     0
100
AcDbPoint
 10
105.0
 20
123.0
 30
0.0
  0
ENDBLK
  5
1552
330
1548
100
AcDbEntity
  8
0
100
AcDbBlockEnd
  0
BLOCK
  5
17A7
330
154D
100
AcDbEntity
  8
0
100
AcDbBlockBegin
  2
*U104
 70
     1
 10
0.0
 20
0.0
 30
0.0
  3
*U104
  1

  0
TEXT
  5
17A8
330
154D
100
AcDbEntity
  8
DIMENSION
 62
     3
100
AcDbText
 10
97.76269035532996
 20
123.5
 30
0.0
 40
1.5
  1
10.5
  7
GOTHIC
100
AcDbText
  0
ENDBLK
  5
17A9
330
154D
100
AcDbEntity
  8
0
100
AcDbBlockEnd
  0
BLOCK
  5
1554
330
1553
100
AcDbEntity
  8
0
100
AcDbBlockBegin
  2
*D105
 70
     1
 10
0.0
 20
0.0
 30
0.0
  3
*D105
  1

  0
LINE
  5
1555
330
1553
100
AcDbEntity
  8
DIMENSION
 62
     3
100
AcDbLine
 10
35.85164880763444
 20
108.037643318496
 30
0.0
 11
35.85164880763444
 21
102.0
 31
0.0
  0
LINE
  5
1556
330
1553
100
AcDbEntity
  8
DIMENSION
 62
     3
100
AcDbLine
 10
38.35164880763443
 20
108.037643318496
 30
0.0
 11
38.35164880763443
 21
102.0
 31
0.0
  0
LINE
  5
1557
330
1553
100
AcDbEntity
  8
DIMENSION
 62
     3
100
AcDbLine
 10
34.85164880763444
 20
103.4999999999999
 30
0.0
 11
33.85164880763444
 21
103.4999999999999
 31
0.0
  0
LINE
  5
1558
330
1553
100
AcDbEntity
  8
DIMENSION
 62
     3
100
AcDbLine
 10
39.35164880763443
 20
103.4999999999999
 30
0.0
 11
40.35164880763443
 21
103.4999999999999
 31
0.0
  0
LINE
  5
1559
330
1553
100
AcDbEntity
  8
DIMENSION
 62
     3
100
AcDbLine
 10
44.58780358708486
 20
103.4999999999999
 30
0.0
 11
38.35164880763443
 21
103.4999999999999
 31
0.0
  0
INSERT
  5
155B
330
1553
100
AcDbEntity
  8
0
100
AcDbBlockReference
  2
*U106
 10
0.0
 20
0.0
 30
0.0
  0
LINE
  5
155C
330
1553
100
AcDbEntity
  8
DIMENSION
 62
     3
100
AcDbLine
 10
35.85164880763444
 20
103.4999999999999
 30
0.0
 11
38.35164880763443
 21
103.4999999999999
 31
0.0
  0
LINE
  5
155D
330
1553
100
AcDbEntity
  8
DIMENSION
 62
     3
100
AcDbLine
 10
35.85164880763444
 20
103.4999999999999
 30
0.0
 11
38.35164880763443
 21
103.4999999999999
 31
0.0
  0
INSERT
  5
155E
330
1553
100
AcDbEntity
  8
DIMENSION
 62
     3
100
AcDbBlockReference
  2
_OPEN30
 10
35.85164880763444
 20
103.4999999999999
 30
0.0
  0
INSERT
  5
155F
330
1553
100
AcDbEntity
  8
DIMENSION
 62
     3
100
AcDbBlockReference
  2
_OPEN30
 10
38.35164880763443
 20
103.4999999999999
 30
0.0
 50
180.0
  0
POINT
  5
1560
330
1553
100
AcDbEntity
  8
DEFPOINTS
 62
     0
100
AcDbPoint
 10
35.85164880763444
 20
108.037643318496
 30
0.0
  0
POINT
  5
1561
330
1553
100
AcDbEntity
  8
DEFPOINTS
 62
     0
100
AcDbPoint
 10
38.35164880763443
 20
108.037643318496
 30
0.0
  0
POINT
  5
1562
330
1553
100
AcDbEntity
  8
DEFPOINTS
 62
     0
100
AcDbPoint
 10
38.35164880763443
 20
103.4999999999999
 30
0.0
  0
ENDBLK
  5
1563
330
1553
100
AcDbEntity
  8
0
100
AcDbBlockEnd
  0
BLOCK
  5
17AA
330
155A
100
AcDbEntity
  8
0
100
AcDbBlockBegin
  2
*U106
 70
     1
 10
0.0
 20
0.0
 30
0.0
  3
*U106
  1

  0
TEXT
  5
17AB
330
155A
100
AcDbEntity
  8
DIMENSION
 62
     3
100
AcDbText
 10
41.27815891703411
 20
104.0
 30
0.0
 40
1.5
  1
2.5
  7
GOTHIC
100
AcDbText
  0
ENDBLK
  5
17AC
330
155A
100
AcDbEntity
  8
0
100
AcDbBlockEnd
  0
BLOCK
  5
1565
330
1564
100
AcDbEntity
  8
0
100
AcDbBlockBegin
  2
*D107
 70
     1
 10
0.0
 20
0.0
 30
0.0
  3
*D107
  1

  0
LINE
  5
1566
330
1564
100
AcDbEntity
  8
DIMENSION
 62
     3
100
AcDbLine
 10
38.35164880763443
 20
119.537643318496
 30
0.0
 11
38.35164880763443
 21
125.205459177229
 31
0.0
  0
LINE
  5
1567
330
1564
100
AcDbEntity
  8
DIMENSION
 62
     3
100
AcDbLine
 10
35.85164880763444
 20
119.1489106197698
 30
0.0
 11
33.52627131654127
 21
124.1356987422164
 31
0.0
  0
ARC
  5
1568
330
1564
100
AcDbEntity
  8
DIMENSION
 62
     3
100
AcDbCircle
 10
38.35164880763443
 20
113.787643318496
 30
0.0
 40
9.91781585873309
100
AcDbArc
 50
95.77950615973296
 51
109.220493840267
  0
INSERT
  5
1569
330
1564
100
AcDbEntity
  8
DIMENSION
 62
     3
100
AcDbBlockReference
  2
_OPEN30
 10
38.35164880763441
 20
123.7054591772291
 30
0.0
 50
2.889753079866515
  0
INSERT
  5
156A
330
1564
100
AcDbEntity
  8
DIMENSION
 62
     3
100
AcDbBlockReference
  2
_OPEN30
 10
34.1601987091523
 20
122.7762370616614
 30
0.0
 50
202.1102469201335
  0
INSERT
  5
156C
330
1564
100
AcDbEntity
  8
0
100
AcDbBlockReference
  2
*U108
 10
0.0
 20
0.0
 30
0.0
  0
POINT
  5
156D
330
1564
100
AcDbEntity
  8
DEFPOINTS
 62
     0
100
AcDbPoint
 10
36.91424131496134
 20
123.600743292905
 30
0.0
  0
POINT
  5
156E
330
1564
100
AcDbEntity
  8
DEFPOINTS
 62
     0
100
AcDbPoint
 10
35.85164880763444
 20
119.1489106197698
 30
0.0
  0
POINT
  5
156F
330
1564
100
AcDbEntity
  8
DEFPOINTS
 62
     0
100
AcDbPoint
 10
38.35164880763443
 20
113.787643318496
 30
0.0
  0
POINT
  5
1570
330
1564
100
AcDbEntity
  8
DEFPOINTS
 62
     0
100
AcDbPoint
 10
38.35164880763443
 20
119.537643318496
 30
0.0
  0
POINT
  5
1571
330
1564
100
AcDbEntity
  8
DEFPOINTS
 62
     0
100
AcDbPoint
 10
38.35164880763443
 20
113.787643318496
 30
0.0
  0
ENDBLK
  5
1572
330
1564
100
AcDbEntity
  8
0
100
AcDbBlockEnd
  0
BLOCK
  5
17AD
330
156B
100
AcDbEntity
  8
0
100
AcDbBlockBegin
  2
*U108
 70
     1
 10
0.0
 20
0.0
 30
0.0
  3
*U108
  1

  0
TEXT
  5
17AE
330
156B
100
AcDbEntity
  8
DIMENSION
 62
     3
100
AcDbText
 10
34.81450304000426
 20
123.6742323488234
 30
0.0
 40
1.5
  1
25°
 50
12.49999999999996
  7
GOTHIC
100
AcDbText
  0
ENDBLK
  5
17AF
330
156B
100
AcDbEntity
  8
0
100
AcDbBlockEnd
  0
BLOCK
  5
1574
330
1573
100
AcDbEntity
  8
0
100
AcDbBlockBegin
  2
*D109
 70
     1
 10
0.0
 20
0.0
 30
0.0
  3
*D109
  1

  0
LINE
  5
1575
330
1573
100
AcDbEntity
  8
DIMENSION
100
AcDbLine
 10
66.45577136594005
 20
77.92134014733505
 30
0.0
 11
56.98830926906762
 21
61.5232147768196
 31
0.0
  0
LINE
  5
1576
330
1573
100
AcDbEntity
  8
DIMENSION
100
AcDbLine
 10
82.04422863405993
 20
68.92134014733503
 30
0.0
 11
72.57676653718748
 21
52.52321477681953
 31
0.0
  0
LINE
  5
1577
330
1573
100
AcDbEntity
  8
DIMENSION
100
AcDbLine
 10
58.60433467285207
 20
62.32225288249626
 30
0.0
 11
72.46074113340306
 21
54.3222528824962
 31
0.0
  0
INSERT
  5
1578
330
1573
100
AcDbEntity
  8
DIMENSION
100
AcDbBlockReference
  2
_OPEN30
 10
57.73830926906762
 20
62.82225288249626
 30
0.0
 50
149.9999999999998
  0
INSERT
  5
1579
330
1573
100
AcDbEntity
  8
DIMENSION
100
AcDbBlockReference
  2
_OPEN30
 10
73.32676653718753
 20
53.82225288249617
 30
0.0
 50
329.9999999999997
  0
INSERT
  5
157B
330
1573
100
AcDbEntity
  8
0
100
AcDbBlockReference
  2
*U110
 10
0.0
 20
0.0
 30
0.0
  0
POINT
  5
157C
330
1573
100
AcDbEntity
  8
DEFPOINTS
 62
     0
100
AcDbPoint
 10
66.45577136594005
 20
77.92134014733505
 30
0.0
  0
POINT
  5
157D
330
1573
100
AcDbEntity
  8
DEFPOINTS
 62
     0
100
AcDbPoint
 10
82.04422863405993
 20
68.92134014733503
 30
0.0
  0
POINT
  5
157E
330
1573
100
AcDbEntity
  8
DEFPOINTS
 62
     0
100
AcDbPoint
 10
73.32676653718753
 20
53.82225288249617
 30
0.0
  0
ENDBLK
  5
157F
330
1573
100
AcDbEntity
  8
0
100
AcDbBlockEnd
  0
BLOCK
  5
17BC
330
157A
100
AcDbEntity
  8
0
100
AcDbBlockBegin
  2
*U110
 70
     1
 10
0.0
 20
0.0
 30
0.0
  3
*U110
  1

  0
TEXT
  5
17BD
330
157A
100
AcDbEntity
  8
DIMENSION
100
AcDbText
 10
64.08769019696555
 20
60.01513471830548
 30
0.0
 40
1.5
  1
φ18
 50
329.9999999999997
  7
GOTHIC
100
AcDbText
  0
ENDBLK
  5
17BE
330
157A
100
AcDbEntity
  8
0
100
AcDbBlockEnd
  0
BLOCK
  5
1581
330
1580
100
AcDbEntity
  8
0
100
AcDbBlockBegin
  2
*D111
 70
     1
 10
0.0
 20
0.0
 30
0.0
  3
*D111
  1

  0
LINE
  5
1582
330
1580
100
AcDbEntity
  8
DIMENSION
100
AcDbLine
 10
109.25
 20
74.42134014733506
 30
0.0
 11
114.7499999999999
 21
74.42134014733506
 31
0.0
  0
LINE
  5
1583
330
1580
100
AcDbEntity
  8
DIMENSION
100
AcDbLine
 10
109.25
 20
72.42134014733505
 30
0.0
 11
114.7499999999999
 21
72.42134014733505
 31
0.0
  0
LINE
  5
1584
330
1580
100
AcDbEntity
  8
DIMENSION
100
AcDbLine
 10
113.25
 20
75.42134014733505
 30
0.0
 11
113.25
 21
76.42134014733506
 31
0.0
  0
LINE
  5
1585
330
1580
100
AcDbEntity
  8
DIMENSION
100
AcDbLine
 10
113.25
 20
71.42134014733504
 30
0.0
 11
113.25
 21
70.42134014733504
 31
0.0
  0
LINE
  5
1586
330
1580
100
AcDbEntity
  8
DIMENSION
100
AcDbLine
 10
113.25
 20
74.42134014733506
 30
0.0
 11
113.25
 21
72.42134014733505
 31
0.0
  0
INSERT
  5
1587
330
1580
100
AcDbEntity
  8
DIMENSION
100
AcDbBlockReference
  2
_OPEN30
 10
113.25
 20
74.42134014733506
 30
0.0
 50
270.0
  0
INSERT
  5
1588
330
1580
100
AcDbEntity
  8
DIMENSION
100
AcDbBlockReference
  2
_OPEN30
 10
113.25
 20
72.42134014733505
 30
0.0
 50
90.0
  0
INSERT
  5
158A
330
1580
100
AcDbEntity
  8
0
100
AcDbBlockReference
  2
*U112
 10
0.0
 20
0.0
 30
0.0
  0
POINT
  5
158B
330
1580
100
AcDbEntity
  8
DEFPOINTS
 62
     0
100
AcDbPoint
 10
109.25
 20
74.42134014733506
 30
0.0
  0
POINT
  5
158C
330
1580
100
AcDbEntity
  8
DEFPOINTS
 62
     0
100
AcDbPoint
 10
109.25
 20
72.42134014733505
 30
0.0
  0
POINT
  5
158D
330
1580
100
AcDbEntity
  8
DEFPOINTS
 62
     0
100
AcDbPoint
 10
113.25
 20
72.42134014733505
 30
0.0
  0
ENDBLK
  5
158E
330
1580
100
AcDbEntity
  8
0
100
AcDbBlockEnd
  0
BLOCK
  5
17C2
330
1589
100
AcDbEntity
  8
0
100
AcDbBlockBegin
  2
*U112
 70
     1
 10
0.0
 20
0.0
 30
0.0
  3
*U112
  1

  0
TEXT
  5
17C3
330
1589
100
AcDbEntity
  8
DIMENSION
100
AcDbText
 10
112.7499999999999
 20
72.94164471586302
 30
0.0
 40
1.5
  1
2
 50
90.0
  7
GOTHIC
100
AcDbText
  0
ENDBLK
  5
17C4
330
1589
100
AcDbEntity
  8
0
100
AcDbBlockEnd
  0
BLOCK
  5
1590
330
158F
100
AcDbEntity
  8
0
100
AcDbBlockBegin
  2
*D113
 70
     1
 10
0.0
 20
0.0
 30
0.0
  3
*D113
  1

  0
LINE
  5
1591
330
158F
100
AcDbEntity
  8
DIMENSION
100
AcDbLine
 10
105.75
 20
76.92134014733501
 30
0.0
 11
119.25
 21
76.92134014733501
 31
0.0
  0
LINE
  5
1592
330
158F
100
AcDbEntity
  8
DIMENSION
100
AcDbLine
 10
105.75
 20
69.92134014733498
 30
0.0
 11
119.25
 21
69.92134014733498
 31
0.0
  0
LINE
  5
1593
330
158F
100
AcDbEntity
  8
DIMENSION
100
AcDbLine
 10
117.7499999999999
 20
75.92134014733502
 30
0.0
 11
117.7499999999999
 21
70.92134014733499
 31
0.0
  0
INSERT
  5
1594
330
158F
100
AcDbEntity
  8
DIMENSION
100
AcDbBlockReference
  2
_OPEN30
 10
117.7499999999999
 20
76.92134014733501
 30
0.0
 50
90.0
  0
INSERT
  5
1595
330
158F
100
AcDbEntity
  8
DIMENSION
100
AcDbBlockReference
  2
_OPEN30
 10
117.7499999999999
 20
69.92134014733498
 30
0.0
 50
270.0
  0
INSERT
  5
1597
330
158F
100
AcDbEntity
  8
0
100
AcDbBlockReference
  2
*U114
 10
0.0
 20
0.0
 30
0.0
  0
POINT
  5
1598
330
158F
100
AcDbEntity
  8
DEFPOINTS
 62
     0
100
AcDbPoint
 10
105.75
 20
76.92134014733501
 30
0.0
  0
POINT
  5
1599
330
158F
100
AcDbEntity
  8
DEFPOINTS
 62
     0
100
AcDbPoint
 10
105.75
 20
69.92134014733498
 30
0.0
  0
POINT
  5
159A
330
158F
100
AcDbEntity
  8
DEFPOINTS
 62
     0
100
AcDbPoint
 10
117.7499999999999
 20
69.92134014733498
 30
0.0
  0
ENDBLK
  5
159B
330
158F
100
AcDbEntity
  8
0
100
AcDbBlockEnd
  0
BLOCK
  5
17C5
330
1596
100
AcDbEntity
  8
0
100
AcDbBlockBegin
  2
*U114
 70
     1
 10
0.0
 20
0.0
 30
0.0
  3
*U114
  1

  0
TEXT
  5
17C6
330
1596
100
AcDbEntity
  8
DIMENSION
100
AcDbText
 10
117.25
 20
72.93783760926395
 30
0.0
 40
1.5
  1
7
 50
90.0
  7
GOTHIC
100
AcDbText
  0
ENDBLK
  5
17C7
330
1596
100
AcDbEntity
  8
0
100
AcDbBlockEnd
  0
BLOCK
  5
159D
330
159C
100
AcDbEntity
  8
0
100
AcDbBlockBegin
  2
*D115
 70
     1
 10
0.0
 20
0.0
 30
0.0
  3
*D115
  1

  0
LINE
  5
159E
330
159C
100
AcDbEntity
  8
DIMENSION
100
AcDbLine
 10
66.88878406783229
 20
77.67134014733509
 30
0.0
 11
59.26006573271015
 21
64.45801239427144
 31
0.0
  0
LINE
  5
159F
330
159C
100
AcDbEntity
  8
DIMENSION
100
AcDbLine
 10
81.61121593216769
 20
69.17134014733504
 30
0.0
 11
73.98249759704558
 21
55.95801239427139
 31
0.0
  0
LINE
  5
15A0
330
159C
100
AcDbEntity
  8
DIMENSION
100
AcDbLine
 10
60.87609113649461
 20
65.25705049994809
 30
0.0
 11
73.86647219326116
 21
57.75705049994805
 31
0.0
  0
INSERT
  5
15A1
330
159C
100
AcDbEntity
  8
DIMENSION
100
AcDbBlockReference
  2
_OPEN30
 10
60.01006573271016
 20
65.75705049994809
 30
0.0
 50
149.9999999999998
  0
INSERT
  5
15A2
330
159C
100
AcDbEntity
  8
DIMENSION
100
AcDbBlockReference
  2
_OPEN30
 10
74.73249759704557
 20
57.25705049994804
 30
0.0
 50
329.9999999999997
  0
INSERT
  5
15A4
330
159C
100
AcDbEntity
  8
0
100
AcDbBlockReference
  2
*U116
 10
0.0
 20
0.0
 30
0.0
  0
POINT
  5
15A5
330
159C
100
AcDbEntity
  8
DEFPOINTS
 62
     0
100
AcDbPoint
 10
66.88878406783229
 20
77.67134014733509
 30
0.0
  0
POINT
  5
15A6
330
159C
100
AcDbEntity
  8
DEFPOINTS
 62
     0
100
AcDbPoint
 10
81.61121593216769
 20
69.17134014733504
 30
0.0
  0
POINT
  5
15A7
330
159C
100
AcDbEntity
  8
DEFPOINTS
 62
     0
100
AcDbPoint
 10
74.73249759704557
 20
57.25705049994804
 30
0.0
  0
ENDBLK
  5
15A8
330
159C
100
AcDbEntity
  8
0
100
AcDbBlockEnd
  0
BLOCK
  5
17D1
330
15A3
100
AcDbEntity
  8
0
100
AcDbBlockBegin
  2
*U116
 70
     1
 10
0.0
 20
0.0
 30
0.0
  3
*U116
  1

  0
TEXT
  5
17D2
330
15A3
100
AcDbEntity
  8
DIMENSION
100
AcDbText
 10
65.93962216283441
 20
63.19231812255935
 30
0.0
 40
1.5
  1
φ17
 50
329.9999999999997
  7
GOTHIC
100
AcDbText
  0
ENDBLK
  5
17D3
330
15A3
100
AcDbEntity
  8
0
100
AcDbBlockEnd
  0
BLOCK
  5
15AA
330
15A9
100
AcDbEntity
  8
0
100
AcDbBlockBegin
  2
*D117
 70
     1
 10
0.0
 20
0.0
 30
0.0
  3
*D117
  1

  0
LINE
  5
15AB
330
15A9
100
AcDbEntity
  8
DIMENSION
100
AcDbLine
 10
82.24999999999999
 20
79.17134014733505
 30
0.0
 11
82.24999999999999
 21
84.13369682883899
 31
0.0
  0
LINE
  5
15AC
330
15A9
100
AcDbEntity
  8
DIMENSION
100
AcDbLine
 10
75.25
 20
82.63369682883899
 30
0.0
 11
81.25
 21
82.63369682883899
 31
0.0
  0
INSERT
  5
15AD
330
15A9
100
AcDbEntity
  8
DIMENSION
100
AcDbBlockReference
  2
_OPEN30
 10
74.25
 20
82.63369682883899
 30
0.0
 50
180.0
  0
INSERT
  5
15AE
330
15A9
100
AcDbEntity
  8
DIMENSION
100
AcDbBlockReference
  2
_OPEN30
 10
82.24999999999999
 20
82.63369682883899
 30
0.0
  0
INSERT
  5
15B0
330
15A9
100
AcDbEntity
  8
0
100
AcDbBlockReference
  2
*U118
 10
0.0
 20
0.0
 30
0.0
  0
POINT
  5
15B1
330
15A9
100
AcDbEntity
  8
DEFPOINTS
 62
     0
100
AcDbPoint
 10
74.25
 20
80.86630317116098
 30
0.0
  0
POINT
  5
15B2
330
15A9
100
AcDbEntity
  8
DEFPOINTS
 62
     0
100
AcDbPoint
 10
82.24999999999999
 20
79.17134014733505
 30
0.0
  0
POINT
  5
15B3
330
15A9
100
AcDbEntity
  8
DEFPOINTS
 62
     0
100
AcDbPoint
 10
82.24999999999999
 20
82.63369682883899
 30
0.0
  0
ENDBLK
  5
15B4
330
15A9
100
AcDbEntity
  8
0
100
AcDbBlockEnd
  0
BLOCK
  5
17D4
330
15AF
100
AcDbEntity
  8
0
100
AcDbBlockBegin
  2
*U118
 70
     1
 10
0.0
 20
0.0
 30
0.0
  3
*U118
  1

  0
TEXT
  5
17D5
330
15AF
100
AcDbEntity
  8
DIMENSION
100
AcDbText
 10
77.77030456852791
 20
83.13369682883902
 30
0.0
 40
1.5
  1
8
  7
GOTHIC
100
AcDbText
  0
ENDBLK
  5
17D6
330
15AF
100
AcDbEntity
  8
0
100
AcDbBlockEnd
  0
BLOCK
  5
15B6
330
15B5
100
AcDbEntity
  8
0
100
AcDbBlockBegin
  2
*D119
 70
     1
 10
0.0
 20
0.0
 30
0.0
  3
*D119
  1

  0
LINE
  5
15B7
330
15B5
100
AcDbEntity
  8
DIMENSION
100
AcDbLine
 10
82.24999999999999
 20
79.17134014733505
 30
0.0
 11
82.24999999999999
 21
84.13369682883899
 31
0.0
  0
LINE
  5
15B8
330
15B5
100
AcDbEntity
  8
DIMENSION
100
AcDbLine
 10
105.75
 20
76.92134014733501
 30
0.0
 11
105.75
 21
84.13369682883899
 31
0.0
  0
LINE
  5
15B9
330
15B5
100
AcDbEntity
  8
DIMENSION
100
AcDbLine
 10
83.25000000000001
 20
82.63369682883899
 30
0.0
 11
104.75
 21
82.63369682883899
 31
0.0
  0
INSERT
  5
15BA
330
15B5
100
AcDbEntity
  8
DIMENSION
100
AcDbBlockReference
  2
_OPEN30
 10
82.24999999999999
 20
82.63369682883899
 30
0.0
 50
180.0
  0
INSERT
  5
15BB
330
15B5
100
AcDbEntity
  8
DIMENSION
100
AcDbBlockReference
  2
_OPEN30
 10
105.75
 20
82.63369682883899
 30
0.0
  0
INSERT
  5
15BD
330
15B5
100
AcDbEntity
  8
0
100
AcDbBlockReference
  2
*U120
 10
0.0
 20
0.0
 30
0.0
  0
POINT
  5
15BE
330
15B5
100
AcDbEntity
  8
DEFPOINTS
 62
     0
100
AcDbPoint
 10
82.24999999999999
 20
79.17134014733505
 30
0.0
  0
POINT
  5
15BF
330
15B5
100
AcDbEntity
  8
DEFPOINTS
 62
     0
100
AcDbPoint
 10
105.75
 20
76.92134014733501
 30
0.0
  0
POINT
  5
15C0
330
15B5
100
AcDbEntity
  8
DEFPOINTS
 62
     0
100
AcDbPoint
 10
105.75
 20
82.63369682883899
 30
0.0
  0
ENDBLK
  5
15C1
330
15B5
100
AcDbEntity
  8
0
100
AcDbBlockEnd
  0
BLOCK
  5
17D7
330
15BC
100
AcDbEntity
  8
0
100
AcDbBlockBegin
  2
*U120
 70
     1
 10
0.0
 20
0.0
 30
0.0
  3
*U120
  1

  0
TEXT
  5
17D8
330
15BC
100
AcDbEntity
  8
DIMENSION
100
AcDbText
 10
92.06218274111673
 20
83.13369682883902
 30
0.0
 40
1.5
  1
23.5
  7
GOTHIC
100
AcDbText
  0
ENDBLK
  5
17D9
330
15BC
100
AcDbEntity
  8
0
100
AcDbBlockEnd
  0
BLOCK
  5
15C3
330
15C2
100
AcDbEntity
  8
0
100
AcDbBlockBegin
  2
*D121
 70
     1
 10
0.0
 20
0.0
 30
0.0
  3
*D121
  1

  0
LINE
  5
15C4
330
15C2
100
AcDbEntity
  8
DIMENSION
100
AcDbLine
 10
105.75
 20
76.92134014733501
 30
0.0
 11
105.75
 21
84.13369682883899
 31
0.0
  0
LINE
  5
15C5
330
15C2
100
AcDbEntity
  8
DIMENSION
100
AcDbLine
 10
106.75
 20
82.63369682883899
 30
0.0
 11
108.25
 21
82.63369682883899
 31
0.0
  0
INSERT
  5
15C7
330
15C2
100
AcDbEntity
  8
0
100
AcDbBlockReference
  2
*U122
 10
0.0
 20
0.0
 30
0.0
  0
INSERT
  5
15C8
330
15C2
100
AcDbEntity
  8
DIMENSION
100
AcDbBlockReference
  2
_OPEN30
 10
105.75
 20
82.63369682883899
 30
0.0
 50
180.0
  0
INSERT
  5
15C9
330
15C2
100
AcDbEntity
  8
DIMENSION
100
AcDbBlockReference
  2
_OPEN30
 10
109.25
 20
82.63369682883899
 30
0.0
  0
POINT
  5
15CA
330
15C2
100
AcDbEntity
  8
DEFPOINTS
 62
     0
100
AcDbPoint
 10
105.75
 20
76.92134014733501
 30
0.0
  0
POINT
  5
15CB
330
15C2
100
AcDbEntity
  8
DEFPOINTS
 62
     0
100
AcDbPoint
 10
109.25
 20
74.42134014733506
 30
0.0
  0
POINT
  5
15CC
330
15C2
100
AcDbEntity
  8
DEFPOINTS
 62
     0
100
AcDbPoint
 10
109.25
 20
82.63369682883899
 30
0.0
  0
ENDBLK
  5
15CD
330
15C2
100
AcDbEntity
  8
0
100
AcDbBlockEnd
  0
BLOCK
  5
17DA
330
15C6
100
AcDbEntity
  8
0
100
AcDbBlockBegin
  2
*U122
 70
     1
 10
0.0
 20
0.0
 30
0.0
  3
*U122
  1

  0
TEXT
  5
17DB
330
15C6
100
AcDbEntity
  8
DIMENSION
100
AcDbText
 10
106.055675997115
 20
83.1454388816018
 30
0.0
 40
1.5
  1
3.5
  7
GOTHIC
100
AcDbText
  0
ENDBLK
  5
17DC
330
15C6
100
AcDbEntity
  8
0
100
AcDbBlockEnd
  0
BLOCK
  5
15CF
330
15CE
100
AcDbEntity
  8
0
100
AcDbBlockBegin
  2
*D123
 70
     1
 10
0.0
 20
0.0
 30
0.0
  3
*D123
  1

  0
LINE
  5
15D0
330
15CE
100
AcDbEntity
  8
DIMENSION
100
AcDbLine
 10
50.25
 20
74.42134014733506
 30
0.0
 11
50.25
 21
93.133696828839
 31
0.0
  0
LINE
  5
15D1
330
15CE
100
AcDbEntity
  8
DIMENSION
100
AcDbLine
 10
109.25
 20
74.42134014733506
 30
0.0
 11
109.25
 21
93.133696828839
 31
0.0
  0
LINE
  5
15D2
330
15CE
100
AcDbEntity
  8
DIMENSION
100
AcDbLine
 10
51.25
 20
91.63369682883899
 30
0.0
 11
108.25
 21
91.63369682883899
 31
0.0
  0
INSERT
  5
15D3
330
15CE
100
AcDbEntity
  8
DIMENSION
100
AcDbBlockReference
  2
_OPEN30
 10
50.25
 20
91.63369682883899
 30
0.0
 50
180.0
  0
INSERT
  5
15D4
330
15CE
100
AcDbEntity
  8
DIMENSION
100
AcDbBlockReference
  2
_OPEN30
 10
109.25
 20
91.63369682883899
 30
0.0
  0
INSERT
  5
15D6
330
15CE
100
AcDbEntity
  8
0
100
AcDbBlockReference
  2
*U124
 10
0.0
 20
0.0
 30
0.0
  0
POINT
  5
15D7
330
15CE
100
AcDbEntity
  8
DEFPOINTS
 62
     0
100
AcDbPoint
 10
50.25
 20
74.42134014733506
 30
0.0
  0
POINT
  5
15D8
330
15CE
100
AcDbEntity
  8
DEFPOINTS
 62
     0
100
AcDbPoint
 10
109.25
 20
74.42134014733506
 30
0.0
  0
POINT
  5
15D9
330
15CE
100
AcDbEntity
  8
DEFPOINTS
 62
     0
100
AcDbPoint
 10
109.25
 20
91.63369682883899
 30
0.0
  0
ENDBLK
  5
15DA
330
15CE
100
AcDbEntity
  8
0
100
AcDbBlockEnd
  0
BLOCK
  5
17BF
330
15D5
100
AcDbEntity
  8
0
100
AcDbBlockBegin
  2
*U124
 70
     1
 10
0.0
 20
0.0
 30
0.0
  3
*U124
  1

  0
TEXT
  5
17C0
330
15D5
100
AcDbEntity
  8
DIMENSION
100
AcDbText
 10
78.79060913705584
 20
92.13369682883898
 30
0.0
 40
1.5
  1
59
  7
GOTHIC
100
AcDbText
  0
ENDBLK
  5
17C1
330
15D5
100
AcDbEntity
  8
0
100
AcDbBlockEnd
  0
BLOCK
  5
15DC
330
15DB
100
AcDbEntity
  8
0
100
AcDbBlockBegin
  2
*D125
 70
     1
 10
0.0
 20
0.0
 30
0.0
  3
*D125
  1

  0
LINE
  5
15DD
330
15DB
100
AcDbEntity
  8
DIMENSION
100
AcDbLine
 10
93.75000000000005
 20
75.17134014733509
 30
0.0
 11
93.75000000000005
 21
76.17134014733508
 31
0.0
  0
LINE
  5
15DE
330
15DB
100
AcDbEntity
  8
DIMENSION
100
AcDbLine
 10
93.75000000000005
 20
71.67134014733504
 30
0.0
 11
93.75000000000005
 21
70.67134014733504
 31
0.0
  0
INSERT
  5
15E0
330
15DB
100
AcDbEntity
  8
0
100
AcDbBlockReference
  2
*U126
 10
0.0
 20
0.0
 30
0.0
  0
LINE
  5
15E1
330
15DB
100
AcDbEntity
  8
DIMENSION
100
AcDbLine
 10
93.75000000000005
 20
74.17134014733509
 30
0.0
 11
93.75000000000005
 21
72.67134014733504
 31
0.0
  0
INSERT
  5
15E2
330
15DB
100
AcDbEntity
  8
DIMENSION
100
AcDbBlockReference
  2
_OPEN30
 10
93.75000000000005
 20
74.17134014733509
 30
0.0
 50
270.0
  0
INSERT
  5
15E3
330
15DB
100
AcDbEntity
  8
DIMENSION
100
AcDbBlockReference
  2
_OPEN30
 10
93.75000000000005
 20
72.67134014733504
 30
0.0
 50
90.0
  0
POINT
  5
15E4
330
15DB
100
AcDbEntity
  8
DEFPOINTS
 62
     0
100
AcDbPoint
 10
89.25
 20
74.17134014733509
 30
0.0
  0
POINT
  5
15E5
330
15DB
100
AcDbEntity
  8
DEFPOINTS
 62
     0
100
AcDbPoint
 10
89.25000000000002
 20
72.67134014733504
 30
0.0
  0
POINT
  5
15E6
330
15DB
100
AcDbEntity
  8
DEFPOINTS
 62
     0
100
AcDbPoint
 10
93.75000000000005
 20
72.67134014733504
 30
0.0
  0
ENDBLK
  5
15E7
330
15DB
100
AcDbEntity
  8
0
100
AcDbBlockEnd
  0
BLOCK
  5
17C8
330
15DF
100
AcDbEntity
  8
0
100
AcDbBlockBegin
  2
*U126
 70
     1
 10
0.0
 20
0.0
 30
0.0
  3
*U126
  1

  0
TEXT
  5
17C9
330
15DF
100
AcDbEntity
  8
DIMENSION
100
AcDbText
 10
93.2099410972113
 20
74.95334194012611
 30
0.0
 40
1.5
  1
1.5
 50
90.0
  7
GOTHIC
100
AcDbText
  0
ENDBLK
  5
17CA
330
15DF
100
AcDbEntity
  8
0
100
AcDbBlockEnd
  0
BLOCK
  5
15E9
330
15E8
100
AcDbEntity
  8
0
100
AcDbBlockBegin
  2
*D127
 70
     1
 10
0.0
 20
0.0
 30
0.0
  3
*D127
  1

  0
LINE
  5
15EA
330
15E8
100
AcDbEntity
  8
DIMENSION
100
AcDbLine
 10
50.25
 20
74.5
 30
0.0
 11
44.24999999999999
 21
74.5
 31
0.0
  0
LINE
  5
15EB
330
15E8
100
AcDbEntity
  8
DIMENSION
100
AcDbLine
 10
50.25
 20
72.50000000000001
 30
0.0
 11
44.24999999999999
 21
72.50000000000001
 31
0.0
  0
LINE
  5
15EC
330
15E8
100
AcDbEntity
  8
DIMENSION
100
AcDbLine
 10
45.75
 20
75.5
 30
0.0
 11
45.75
 21
76.5
 31
0.0
  0
LINE
  5
15ED
330
15E8
100
AcDbEntity
  8
DIMENSION
100
AcDbLine
 10
45.75
 20
71.50000000000002
 30
0.0
 11
45.75
 21
70.50000000000001
 31
0.0
  0
LINE
  5
15EE
330
15E8
100
AcDbEntity
  8
DIMENSION
100
AcDbLine
 10
45.75
 20
74.5
 30
0.0
 11
45.75
 21
72.50000000000001
 31
0.0
  0
INSERT
  5
15EF
330
15E8
100
AcDbEntity
  8
DIMENSION
100
AcDbBlockReference
  2
_OPEN30
 10
45.75
 20
74.5
 30
0.0
 50
270.0
  0
INSERT
  5
15F0
330
15E8
100
AcDbEntity
  8
DIMENSION
100
AcDbBlockReference
  2
_OPEN30
 10
45.75
 20
72.50000000000001
 30
0.0
 50
90.0
  0
INSERT
  5
15F2
330
15E8
100
AcDbEntity
  8
0
100
AcDbBlockReference
  2
*U128
 10
0.0
 20
0.0
 30
0.0
  0
POINT
  5
15F3
330
15E8
100
AcDbEntity
  8
DEFPOINTS
 62
     0
100
AcDbPoint
 10
50.25
 20
74.5
 30
0.0
  0
POINT
  5
15F4
330
15E8
100
AcDbEntity
  8
DEFPOINTS
 62
     0
100
AcDbPoint
 10
50.25
 20
72.50000000000001
 30
0.0
  0
POINT
  5
15F5
330
15E8
100
AcDbEntity
  8
DEFPOINTS
 62
     0
100
AcDbPoint
 10
45.75
 20
72.50000000000001
 30
0.0
  0
ENDBLK
  5
15F6
330
15E8
100
AcDbEntity
  8
0
100
AcDbBlockEnd
  0
BLOCK
  5
181B
330
15F1
100
AcDbEntity
  8
0
100
AcDbBlockBegin
  2
*U128
 70
     1
 10
0.0
 20
0.0
 30
0.0
  3
*U128
  1

  0
TEXT
  5
181C
330
15F1
100
AcDbEntity
  8
DIMENSION
100
AcDbText
 10
45.24999999999999
 20
73.02030456852794
 30
0.0
 40
1.5
  1
2
 50
90.0
  7
GOTHIC
100
AcDbText
  0
ENDBLK
  5
181D
330
15F1
100
AcDbEntity
  8
0
100
AcDbBlockEnd
  0
BLOCK
  5
15F8
330
15F7
100
AcDbEntity
  8
0
100
AcDbBlockBegin
  2
*D129
 70
     1
 10
0.0
 20
0.0
 30
0.0
  3
*D129
  1

  0
LINE
  5
15F9
330
15F7
100
AcDbEntity
  8
DIMENSION
100
AcDbLine
 10
74.25
 20
66.13369682883899
 30
0.0
 11
74.25
 21
60.133696828839
 31
0.0
  0
LINE
  5
15FA
330
15F7
100
AcDbEntity
  8
DIMENSION
100
AcDbLine
 10
87.24999999999999
 20
68.4213401473351
 30
0.0
 11
87.24999999999999
 21
60.133696828839
 31
0.0
  0
LINE
  5
15FB
330
15F7
100
AcDbEntity
  8
DIMENSION
100
AcDbLine
 10
75.25
 20
61.63369682883899
 30
0.0
 11
86.25
 21
61.63369682883899
 31
0.0
  0
INSERT
  5
15FC
330
15F7
100
AcDbEntity
  8
DIMENSION
100
AcDbBlockReference
  2
_OPEN30
 10
74.25
 20
61.63369682883899
 30
0.0
 50
180.0
  0
INSERT
  5
15FD
330
15F7
100
AcDbEntity
  8
DIMENSION
100
AcDbBlockReference
  2
_OPEN30
 10
87.24999999999999
 20
61.63369682883899
 30
0.0
  0
INSERT
  5
15FF
330
15F7
100
AcDbEntity
  8
0
100
AcDbBlockReference
  2
*U130
 10
0.0
 20
0.0
 30
0.0
  0
POINT
  5
1600
330
15F7
100
AcDbEntity
  8
DEFPOINTS
 62
     0
100
AcDbPoint
 10
74.25
 20
66.13369682883899
 30
0.0
  0
POINT
  5
1601
330
15F7
100
AcDbEntity
  8
DEFPOINTS
 62
     0
100
AcDbPoint
 10
87.24999999999999
 20
68.4213401473351
 30
0.0
  0
POINT
  5
1602
330
15F7
100
AcDbEntity
  8
DEFPOINTS
 62
     0
100
AcDbPoint
 10
87.24999999999999
 20
61.63369682883899
 30
0.0
  0
ENDBLK
  5
1603
330
15F7
100
AcDbEntity
  8
0
100
AcDbBlockEnd
  0
BLOCK
  5
17CB
330
15FE
100
AcDbEntity
  8
0
100
AcDbBlockBegin
  2
*U130
 70
     1
 10
0.0
 20
0.0
 30
0.0
  3
*U130
  1

  0
TEXT
  5
17CC
330
15FE
100
AcDbEntity
  8
DIMENSION
100
AcDbText
 10
79.73730964467006
 20
62.133696828839
 30
0.0
 40
1.5
  1
13
  7
GOTHIC
100
AcDbText
  0
ENDBLK
  5
17CD
330
15FE
100
AcDbEntity
  8
0
100
AcDbBlockEnd
  0
BLOCK
  5
1605
330
1604
100
AcDbEntity
  8
0
100
AcDbBlockBegin
  2
*D131
 70
     1
 10
0.0
 20
0.0
 30
0.0
  3
*D131
  1

  0
LINE
  5
1606
330
1604
100
AcDbEntity
  8
DIMENSION
100
AcDbLine
 10
106.25
 20
73.42134014733506
 30
0.0
 11
106.25
 21
60.133696828839
 31
0.0
  0
LINE
  5
1607
330
1604
100
AcDbEntity
  8
DIMENSION
100
AcDbLine
 10
109.25
 20
72.42134014733505
 30
0.0
 11
109.25
 21
60.133696828839
 31
0.0
  0
LINE
  5
1608
330
1604
100
AcDbEntity
  8
DIMENSION
100
AcDbLine
 10
105.2499999999999
 20
61.63369682883899
 30
0.0
 11
104.2499999999999
 21
61.63369682883899
 31
0.0
  0
LINE
  5
1609
330
1604
100
AcDbEntity
  8
DIMENSION
100
AcDbLine
 10
110.25
 20
61.63369682883899
 30
0.0
 11
111.25
 21
61.63369682883899
 31
0.0
  0
LINE
  5
160A
330
1604
100
AcDbEntity
  8
DIMENSION
100
AcDbLine
 10
106.25
 20
61.63369682883899
 30
0.0
 11
109.25
 21
61.63369682883899
 31
0.0
  0
INSERT
  5
160B
330
1604
100
AcDbEntity
  8
DIMENSION
100
AcDbBlockReference
  2
_OPEN30
 10
106.25
 20
61.63369682883899
 30
0.0
  0
INSERT
  5
160C
330
1604
100
AcDbEntity
  8
DIMENSION
100
AcDbBlockReference
  2
_OPEN30
 10
109.25
 20
61.63369682883899
 30
0.0
 50
180.0
  0
INSERT
  5
160E
330
1604
100
AcDbEntity
  8
0
100
AcDbBlockReference
  2
*U132
 10
0.0
 20
0.0
 30
0.0
  0
POINT
  5
160F
330
1604
100
AcDbEntity
  8
DEFPOINTS
 62
     0
100
AcDbPoint
 10
106.25
 20
73.42134014733506
 30
0.0
  0
POINT
  5
1610
330
1604
100
AcDbEntity
  8
DEFPOINTS
 62
     0
100
AcDbPoint
 10
109.25
 20
72.42134014733505
 30
0.0
  0
POINT
  5
1611
330
1604
100
AcDbEntity
  8
DEFPOINTS
 62
     0
100
AcDbPoint
 10
109.25
 20
61.63369682883899
 30
0.0
  0
ENDBLK
  5
1612
330
1604
100
AcDbEntity
  8
0
100
AcDbBlockEnd
  0
BLOCK
  5
17CE
330
160D
100
AcDbEntity
  8
0
100
AcDbBlockBegin
  2
*U132
 70
     1
 10
0.0
 20
0.0
 30
0.0
  3
*U132
  1

  0
TEXT
  5
17CF
330
160D
100
AcDbEntity
  8
DIMENSION
100
AcDbText
 10
107.2779187817259
 20
62.133696828839
 30
0.0
 40
1.5
  1
3
  7
GOTHIC
100
AcDbText
  0
ENDBLK
  5
17D0
330
160D
100
AcDbEntity
  8
0
100
AcDbBlockEnd
  0
BLOCK
  5
1614
330
1613
100
AcDbEntity
  8
0
100
AcDbBlockBegin
  2
*D133
 70
     1
 10
0.0
 20
0.0
 30
0.0
  3
*D133
  1

  0
LINE
  5
1615
330
1613
100
AcDbEntity
  8
DIMENSION
100
AcDbLine
 10
17.10164880763443
 20
79.25000000000001
 30
0.0
 11
11.25
 21
79.25000000000001
 31
0.0
  0
LINE
  5
1616
330
1613
100
AcDbEntity
  8
DIMENSION
100
AcDbLine
 10
17.10164880763443
 20
67.75
 30
0.0
 11
11.25
 21
67.75
 31
0.0
  0
LINE
  5
1617
330
1613
100
AcDbEntity
  8
DIMENSION
100
AcDbLine
 10
12.75
 20
78.25000000000001
 30
0.0
 11
12.75
 21
68.75
 31
0.0
  0
INSERT
  5
1618
330
1613
100
AcDbEntity
  8
DIMENSION
100
AcDbBlockReference
  2
_OPEN30
 10
12.75
 20
79.25000000000001
 30
0.0
 50
90.0
  0
INSERT
  5
1619
330
1613
100
AcDbEntity
  8
DIMENSION
100
AcDbBlockReference
  2
_OPEN30
 10
12.75
 20
67.75
 30
0.0
 50
270.0
  0
INSERT
  5
161B
330
1613
100
AcDbEntity
  8
0
100
AcDbBlockReference
  2
*U134
 10
0.0
 20
0.0
 30
0.0
  0
POINT
  5
161C
330
1613
100
AcDbEntity
  8
DEFPOINTS
 62
     0
100
AcDbPoint
 10
17.10164880763443
 20
79.25000000000001
 30
0.0
  0
POINT
  5
161D
330
1613
100
AcDbEntity
  8
DEFPOINTS
 62
     0
100
AcDbPoint
 10
17.10164880763443
 20
67.75
 30
0.0
  0
POINT
  5
161E
330
1613
100
AcDbEntity
  8
DEFPOINTS
 62
     0
100
AcDbPoint
 10
12.75
 20
67.75
 30
0.0
  0
ENDBLK
  5
161F
330
1613
100
AcDbEntity
  8
0
100
AcDbBlockEnd
  0
BLOCK
  5
1812
330
161A
100
AcDbEntity
  8
0
100
AcDbBlockBegin
  2
*U134
 70
     1
 10
0.0
 20
0.0
 30
0.0
  3
*U134
  1

  0
TEXT
  5
1813
330
161A
100
AcDbEntity
  8
DIMENSION
100
AcDbText
 10
12.24999999999998
 20
71.51269035532995
 30
0.0
 40
1.5
  1
11.5
 50
90.0
  7
GOTHIC
100
AcDbText
  0
ENDBLK
  5
1814
330
161A
100
AcDbEntity
  8
0
100
AcDbBlockEnd
  0
BLOCK
  5
1621
330
1620
100
AcDbEntity
  8
0
100
AcDbBlockBegin
  2
*D135
 70
     1
 10
0.0
 20
0.0
 30
0.0
  3
*D135
  1

  0
LINE
  5
1622
330
1620
100
AcDbEntity
  8
DIMENSION
100
AcDbLine
 10
50.25
 20
74.5
 30
0.0
 11
50.25
 21
88.49999999999999
 31
0.0
  0
LINE
  5
1623
330
1620
100
AcDbEntity
  8
DIMENSION
100
AcDbLine
 10
74.25
 20
80.94496302382593
 30
0.0
 11
74.25
 21
88.49999999999999
 31
0.0
  0
LINE
  5
1624
330
1620
100
AcDbEntity
  8
DIMENSION
100
AcDbLine
 10
51.25
 20
87.0
 30
0.0
 11
73.25
 21
87.0
 31
0.0
  0
INSERT
  5
1625
330
1620
100
AcDbEntity
  8
DIMENSION
100
AcDbBlockReference
  2
_OPEN30
 10
50.25
 20
87.0
 30
0.0
 50
180.0
  0
INSERT
  5
1626
330
1620
100
AcDbEntity
  8
DIMENSION
100
AcDbBlockReference
  2
_OPEN30
 10
74.25
 20
87.0
 30
0.0
  0
INSERT
  5
1628
330
1620
100
AcDbEntity
  8
0
100
AcDbBlockReference
  2
*U136
 10
0.0
 20
0.0
 30
0.0
  0
POINT
  5
1629
330
1620
100
AcDbEntity
  8
DEFPOINTS
 62
     0
100
AcDbPoint
 10
50.25
 20
74.5
 30
0.0
  0
POINT
  5
162A
330
1620
100
AcDbEntity
  8
DEFPOINTS
 62
     0
100
AcDbPoint
 10
74.25
 20
80.94496302382593
 30
0.0
  0
POINT
  5
162B
330
1620
100
AcDbEntity
  8
DEFPOINTS
 62
     0
100
AcDbPoint
 10
74.25
 20
87.0
 30
0.0
  0
ENDBLK
  5
162C
330
1620
100
AcDbEntity
  8
0
100
AcDbBlockEnd
  0
BLOCK
  5
1824
330
1627
100
AcDbEntity
  8
0
100
AcDbBlockBegin
  2
*U136
 70
     1
 10
0.0
 20
0.0
 30
0.0
  3
*U136
  1

  0
TEXT
  5
1825
330
1627
100
AcDbEntity
  8
DIMENSION
100
AcDbText
 10
61.26395939086294
 20
87.5
 30
0.0
 40
1.5
  1
24
  7
GOTHIC
100
AcDbText
  0
ENDBLK
  5
1826
330
1627
100
AcDbEntity
  8
0
100
AcDbBlockEnd
  0
BLOCK
  5
162E
330
162D
100
AcDbEntity
  8
0
100
AcDbBlockBegin
  2
*D137
 70
     1
 10
0.0
 20
0.0
 30
0.0
  3
*D137
  1

  0
LINE
  5
162F
330
162D
100
AcDbEntity
  8
DIMENSION
100
AcDbLine
 10
75.25
 20
87.13369682883898
 30
0.0
 11
108.25
 21
87.13369682883898
 31
0.0
  0
INSERT
  5
1630
330
162D
100
AcDbEntity
  8
DIMENSION
100
AcDbBlockReference
  2
_OPEN30
 10
74.25
 20
87.13369682883898
 30
0.0
 50
180.0
  0
INSERT
  5
1631
330
162D
100
AcDbEntity
  8
DIMENSION
100
AcDbBlockReference
  2
_OPEN30
 10
109.25
 20
87.13369682883898
 30
0.0
  0
INSERT
  5
1633
330
162D
100
AcDbEntity
  8
0
100
AcDbBlockReference
  2
*U138
 10
0.0
 20
0.0
 30
0.0
  0
POINT
  5
1634
330
162D
100
AcDbEntity
  8
DEFPOINTS
 62
     0
100
AcDbPoint
 10
74.25
 20
80.86630317116098
 30
0.0
  0
POINT
  5
1635
330
162D
100
AcDbEntity
  8
DEFPOINTS
 62
     0
100
AcDbPoint
 10
109.25
 20
74.42134014733506
 30
0.0
  0
POINT
  5
1636
330
162D
100
AcDbEntity
  8
DEFPOINTS
 62
     0
100
AcDbPoint
 10
109.25
 20
87.13369682883898
 30
0.0
  0
ENDBLK
  5
1637
330
162D
100
AcDbEntity
  8
0
100
AcDbBlockEnd
  0
BLOCK
  5
17DD
330
1632
100
AcDbEntity
  8
0
100
AcDbBlockBegin
  2
*U138
 70
     1
 10
0.0
 20
0.0
 30
0.0
  3
*U138
  1

  0
TEXT
  5
17DE
330
1632
100
AcDbEntity
  8
DIMENSION
100
AcDbText
 10
90.79060913705585
 20
87.63369682883897
 30
0.0
 40
1.5
  1
35
  7
GOTHIC
100
AcDbText
  0
ENDBLK
  5
17DF
330
1632
100
AcDbEntity
  8
0
100
AcDbBlockEnd
  0
BLOCK
  5
1639
330
1638
100
AcDbEntity
  8
0
100
AcDbBlockBegin
  2
*D139
 70
     1
 10
0.0
 20
0.0
 30
0.0
  3
*D139
  1

  0
LINE
  5
163A
330
1638
100
AcDbEntity
  8
DIMENSION
100
AcDbLine
 10
63.75
 20
79.25
 30
0.0
 11
63.75
 21
83.94440749150392
 31
0.0
  0
LINE
  5
163B
330
1638
100
AcDbEntity
  8
DIMENSION
100
AcDbLine
 10
51.25
 20
82.44440749150392
 30
0.0
 11
62.75
 21
82.44440749150392
 31
0.0
  0
INSERT
  5
163C
330
1638
100
AcDbEntity
  8
DIMENSION
100
AcDbBlockReference
  2
_OPEN30
 10
50.25
 20
82.44440749150392
 30
0.0
 50
180.0
  0
INSERT
  5
163D
330
1638
100
AcDbEntity
  8
DIMENSION
100
AcDbBlockReference
  2
_OPEN30
 10
63.75
 20
82.44440749150392
 30
0.0
  0
INSERT
  5
163F
330
1638
100
AcDbEntity
  8
0
100
AcDbBlockReference
  2
*U140
 10
0.0
 20
0.0
 30
0.0
  0
POINT
  5
1640
330
1638
100
AcDbEntity
  8
DEFPOINTS
 62
     0
100
AcDbPoint
 10
50.25
 20
74.5
 30
0.0
  0
POINT
  5
1641
330
1638
100
AcDbEntity
  8
DEFPOINTS
 62
     0
100
AcDbPoint
 10
63.75
 20
79.25
 30
0.0
  0
POINT
  5
1642
330
1638
100
AcDbEntity
  8
DEFPOINTS
 62
     0
100
AcDbPoint
 10
63.75
 20
82.44440749150392
 30
0.0
  0
ENDBLK
  5
1643
330
1638
100
AcDbEntity
  8
0
100
AcDbBlockEnd
  0
BLOCK
  5
181E
330
163E
100
AcDbEntity
  8
0
100
AcDbBlockBegin
  2
*U140
 70
     1
 10
0.0
 20
0.0
 30
0.0
  3
*U140
  1

  0
TEXT
  5
181F
330
163E
100
AcDbEntity
  8
DIMENSION
100
AcDbText
 10
55.01269035532993
 20
82.94440749150393
 30
0.0
 40
1.5
  1
13.5
  7
GOTHIC
100
AcDbText
  0
ENDBLK
  5
1820
330
163E
100
AcDbEntity
  8
0
100
AcDbBlockEnd
  0
BLOCK
  5
1645
330
1644
100
AcDbEntity
  8
0
100
AcDbBlockBegin
  2
*D141
 70
     1
 10
0.0
 20
0.0
 30
0.0
  3
*D141
  1

  0
LINE
  5
1646
330
1644
100
AcDbEntity
  8
DIMENSION
100
AcDbLine
 10
64.75
 20
82.5
 30
0.0
 11
73.25
 21
82.5
 31
0.0
  0
INSERT
  5
1647
330
1644
100
AcDbEntity
  8
DIMENSION
100
AcDbBlockReference
  2
_OPEN30
 10
63.75
 20
82.5
 30
0.0
 50
180.0
  0
INSERT
  5
1648
330
1644
100
AcDbEntity
  8
DIMENSION
100
AcDbBlockReference
  2
_OPEN30
 10
74.25
 20
82.5
 30
0.0
  0
INSERT
  5
164A
330
1644
100
AcDbEntity
  8
0
100
AcDbBlockReference
  2
*U142
 10
0.0
 20
0.0
 30
0.0
  0
POINT
  5
164B
330
1644
100
AcDbEntity
  8
DEFPOINTS
 62
     0
100
AcDbPoint
 10
63.75
 20
79.25
 30
0.0
  0
POINT
  5
164C
330
1644
100
AcDbEntity
  8
DEFPOINTS
 62
     0
100
AcDbPoint
 10
74.25
 20
80.94496302382593
 30
0.0
  0
POINT
  5
164D
330
1644
100
AcDbEntity
  8
DEFPOINTS
 62
     0
100
AcDbPoint
 10
74.25
 20
82.5
 30
0.0
  0
ENDBLK
  5
164E
330
1644
100
AcDbEntity
  8
0
100
AcDbBlockEnd
  0
BLOCK
  5
1821
330
1649
100
AcDbEntity
  8
0
100
AcDbBlockBegin
  2
*U142
 70
     1
 10
0.0
 20
0.0
 30
0.0
  3
*U142
  1

  0
TEXT
  5
1822
330
1649
100
AcDbEntity
  8
DIMENSION
100
AcDbText
 10
67.01269035532995
 20
83.0
 30
0.0
 40
1.5
  1
10.5
  7
GOTHIC
100
AcDbText
  0
ENDBLK
  5
1823
330
1649
100
AcDbEntity
  8
0
100
AcDbBlockEnd
  0
BLOCK
  5
1650
330
164F
100
AcDbEntity
  8
0
100
AcDbBlockBegin
  2
*D143
 70
     1
 10
0.0
 20
0.0
 30
0.0
  3
*D143
  1

  0
LINE
  5
1651
330
164F
100
AcDbEntity
  8
DIMENSION
100
AcDbLine
 10
17.10164880763443
 20
67.75
 30
0.0
 11
17.10164880763443
 21
61.71235668150393
 31
0.0
  0
LINE
  5
1652
330
164F
100
AcDbEntity
  8
DIMENSION
100
AcDbLine
 10
19.60164880763443
 20
67.75
 30
0.0
 11
19.60164880763443
 21
61.71235668150393
 31
0.0
  0
LINE
  5
1653
330
164F
100
AcDbEntity
  8
DIMENSION
100
AcDbLine
 10
16.10164880763442
 20
63.21235668150393
 30
0.0
 11
15.10164880763443
 21
63.21235668150393
 31
0.0
  0
LINE
  5
1654
330
164F
100
AcDbEntity
  8
DIMENSION
100
AcDbLine
 10
20.60164880763442
 20
63.21235668150393
 30
0.0
 11
21.60164880763443
 21
63.21235668150393
 31
0.0
  0
LINE
  5
1655
330
164F
100
AcDbEntity
  8
DIMENSION
100
AcDbLine
 10
25.83780358708488
 20
63.21235668150393
 30
0.0
 11
19.60164880763443
 21
63.21235668150393
 31
0.0
  0
INSERT
  5
1657
330
164F
100
AcDbEntity
  8
0
100
AcDbBlockReference
  2
*U144
 10
0.0
 20
0.0
 30
0.0
  0
LINE
  5
1658
330
164F
100
AcDbEntity
  8
DIMENSION
100
AcDbLine
 10
17.10164880763443
 20
63.21235668150393
 30
0.0
 11
19.60164880763443
 21
63.21235668150393
 31
0.0
  0
LINE
  5
1659
330
164F
100
AcDbEntity
  8
DIMENSION
100
AcDbLine
 10
17.10164880763443
 20
63.21235668150393
 30
0.0
 11
19.60164880763443
 21
63.21235668150393
 31
0.0
  0
INSERT
  5
165A
330
164F
100
AcDbEntity
  8
DIMENSION
100
AcDbBlockReference
  2
_OPEN30
 10
17.10164880763443
 20
63.21235668150393
 30
0.0
  0
INSERT
  5
165B
330
164F
100
AcDbEntity
  8
DIMENSION
100
AcDbBlockReference
  2
_OPEN30
 10
19.60164880763443
 20
63.21235668150393
 30
0.0
 50
180.0
  0
POINT
  5
165C
330
164F
100
AcDbEntity
  8
DEFPOINTS
 62
     0
100
AcDbPoint
 10
17.10164880763443
 20
67.75
 30
0.0
  0
POINT
  5
165D
330
164F
100
AcDbEntity
  8
DEFPOINTS
 62
     0
100
AcDbPoint
 10
19.60164880763443
 20
67.75
 30
0.0
  0
POINT
  5
165E
330
164F
100
AcDbEntity
  8
DEFPOINTS
 62
     0
100
AcDbPoint
 10
19.60164880763443
 20
63.21235668150393
 30
0.0
  0
ENDBLK
  5
165F
330
164F
100
AcDbEntity
  8
0
100
AcDbBlockEnd
  0
BLOCK
  5
1815
330
1656
100
AcDbEntity
  8
0
100
AcDbBlockBegin
  2
*U144
 70
     1
 10
0.0
 20
0.0
 30
0.0
  3
*U144
  1

  0
TEXT
  5
1816
330
1656
100
AcDbEntity
  8
DIMENSION
100
AcDbText
 10
22.52815891703412
 20
63.71235668150393
 30
0.0
 40
1.5
  1
2.5
  7
GOTHIC
100
AcDbText
  0
ENDBLK
  5
1817
330
1656
100
AcDbEntity
  8
0
100
AcDbBlockEnd
  0
BLOCK
  5
1661
330
1660
100
AcDbEntity
  8
0
100
AcDbBlockBegin
  2
*D145
 70
     1
 10
0.0
 20
0.0
 30
0.0
  3
*D145
  1

  0
LINE
  5
1662
330
1660
100
AcDbEntity
  8
DIMENSION
100
AcDbLine
 10
19.60164880763444
 20
79.24999999999998
 30
0.0
 11
19.60164880763444
 21
84.91781585873306
 31
0.0
  0
LINE
  5
1663
330
1660
100
AcDbEntity
  8
DIMENSION
100
AcDbLine
 10
17.10164880763444
 20
78.86126730127388
 30
0.0
 11
14.77627131654126
 21
83.8480554237203
 31
0.0
  0
ARC
  5
1664
330
1660
100
AcDbEntity
  8
DIMENSION
100
AcDbCircle
 10
19.60164880763443
 20
73.49999999999998
 30
0.0
 40
9.917815858733066
100
AcDbArc
 50
78.44098768053426
 51
84.22049384026712
  0
ARC
  5
1665
330
1660
100
AcDbEntity
  8
DIMENSION
100
AcDbCircle
 10
19.60164880763443
 20
73.49999999999998
 30
0.0
 40
9.917815858733066
100
AcDbArc
 50
120.7795061597328
 51
126.5590123194657
  0
ARC
  5
1666
330
1660
100
AcDbEntity
  8
DIMENSION
100
AcDbCircle
 10
19.60164880763443
 20
73.49999999999998
 30
0.0
 40
9.917815858733066
100
AcDbArc
 50
90.0
 51
115.0
  0
INSERT
  5
1667
330
1660
100
AcDbEntity
  8
DIMENSION
100
AcDbBlockReference
  2
_OPEN30
 10
19.60164880763444
 20
83.41781585873306
 30
0.0
 50
177.1102469201335
  0
INSERT
  5
1668
330
1660
100
AcDbEntity
  8
DIMENSION
100
AcDbBlockReference
  2
_OPEN30
 10
15.41019870915232
 20
82.48859374316534
 30
0.0
 50
27.88975307986642
  0
INSERT
  5
166A
330
1660
100
AcDbEntity
  8
0
100
AcDbBlockReference
  2
*U146
 10
0.0
 20
0.0
 30
0.0
  0
POINT
  5
166B
330
1660
100
AcDbEntity
  8
DEFPOINTS
 62
     0
100
AcDbPoint
 10
18.16424131496135
 20
83.31309997440889
 30
0.0
  0
POINT
  5
166C
330
1660
100
AcDbEntity
  8
DEFPOINTS
 62
     0
100
AcDbPoint
 10
17.10164880763444
 20
78.86126730127388
 30
0.0
  0
POINT
  5
166D
330
1660
100
AcDbEntity
  8
DEFPOINTS
 62
     0
100
AcDbPoint
 10
19.60164880763443
 20
73.49999999999998
 30
0.0
  0
POINT
  5
166E
330
1660
100
AcDbEntity
  8
DEFPOINTS
 62
     0
100
AcDbPoint
 10
19.60164880763444
 20
79.24999999999998
 30
0.0
  0
POINT
  5
166F
330
1660
100
AcDbEntity
  8
DEFPOINTS
 62
     0
100
AcDbPoint
 10
19.60164880763443
 20
73.49999999999998
 30
0.0
  0
ENDBLK
  5
1670
330
1660
100
AcDbEntity
  8
0
100
AcDbBlockEnd
  0
BLOCK
  5
1818
330
1669
100
AcDbEntity
  8
0
100
AcDbBlockBegin
  2
*U146
 70
     1
 10
0.0
 20
0.0
 30
0.0
  3
*U146
  1

  0
TEXT
  5
1819
330
1669
100
AcDbEntity
  8
DIMENSION
100
AcDbText
 10
16.06450304000427
 20
83.3865890303274
 30
0.0
 40
1.5
  1
25°
 50
12.49999999999996
  7
GOTHIC
100
AcDbText
  0
ENDBLK
  5
181A
330
1669
100
AcDbEntity
  8
0
100
AcDbBlockEnd
  0
BLOCK
  5
1672
330
1671
100
AcDbEntity
  8
0
100
AcDbBlockBegin
  2
*D147
 70
     1
 10
0.0
 20
0.0
 30
0.0
  3
*D147
  1

  0
LINE
  5
1673
330
1671
100
AcDbEntity
  8
DIMENSION
 62
     3
100
AcDbLine
 10
140.0
 20
75.74999999999999
 30
0.0
 11
145.5
 21
75.74999999999999
 31
0.0
  0
LINE
  5
1674
330
1671
100
AcDbEntity
  8
DIMENSION
 62
     3
100
AcDbLine
 10
140.0
 20
69.75
 30
0.0
 11
145.5
 21
69.75
 31
0.0
  0
LINE
  5
1675
330
1671
100
AcDbEntity
  8
DIMENSION
 62
     3
100
AcDbLine
 10
144.0
 20
74.74999999999998
 30
0.0
 11
144.0
 21
70.75
 31
0.0
  0
INSERT
  5
1676
330
1671
100
AcDbEntity
  8
DIMENSION
 62
     3
100
AcDbBlockReference
  2
_OPEN30
 10
144.0
 20
75.74999999999999
 30
0.0
 50
90.0
  0
INSERT
  5
1677
330
1671
100
AcDbEntity
  8
DIMENSION
 62
     3
100
AcDbBlockReference
  2
_OPEN30
 10
144.0
 20
69.75
 30
0.0
 50
270.0
  0
INSERT
  5
1679
330
1671
100
AcDbEntity
  8
0
100
AcDbBlockReference
  2
*U148
 10
0.0
 20
0.0
 30
0.0
  0
POINT
  5
167A
330
1671
100
AcDbEntity
  8
DEFPOINTS
 62
     0
100
AcDbPoint
 10
140.0
 20
75.74999999999999
 30
0.0
  0
POINT
  5
167B
330
1671
100
AcDbEntity
  8
DEFPOINTS
 62
     0
100
AcDbPoint
 10
140.0
 20
69.75
 30
0.0
  0
POINT
  5
167C
330
1671
100
AcDbEntity
  8
DEFPOINTS
 62
     0
100
AcDbPoint
 10
144.0
 20
69.75
 30
0.0
  0
ENDBLK
  5
167D
330
1671
100
AcDbEntity
  8
0
100
AcDbBlockEnd
  0
BLOCK
  5
17E0
330
1678
100
AcDbEntity
  8
0
100
AcDbBlockBegin
  2
*U148
 70
     1
 10
0.0
 20
0.0
 30
0.0
  3
*U148
  1

  0
TEXT
  5
17E1
330
1678
100
AcDbEntity
  8
DIMENSION
 62
     3
100
AcDbText
 10
143.5
 20
72.26269035532995
 30
0.0
 40
1.5
  1
6
 50
90.0
  7
GOTHIC
100
AcDbText
  0
ENDBLK
  5
17E2
330
1678
100
AcDbEntity
  8
0
100
AcDbBlockEnd
  0
BLOCK
  5
167F
330
167E
100
AcDbEntity
  8
0
100
AcDbBlockBegin
  2
*D149
 70
     1
 10
0.0
 20
0.0
 30
0.0
  3
*D149
  1

  0
LINE
  5
1680
330
167E
100
AcDbEntity
  8
DIMENSION
 62
     3
100
AcDbLine
 10
139.2320508075688
 20
76.25
 30
0.0
 11
150.0
 21
76.25
 31
0.0
  0
LINE
  5
1681
330
167E
100
AcDbEntity
  8
DIMENSION
 62
     3
100
AcDbLine
 10
139.2320508075688
 20
69.25
 30
0.0
 11
150.0
 21
69.25
 31
0.0
  0
LINE
  5
1682
330
167E
100
AcDbEntity
  8
DIMENSION
 62
     3
100
AcDbLine
 10
148.4999999999998
 20
75.25
 30
0.0
 11
148.4999999999998
 21
70.25
 31
0.0
  0
INSERT
  5
1683
330
167E
100
AcDbEntity
  8
DIMENSION
 62
     3
100
AcDbBlockReference
  2
_OPEN30
 10
148.4999999999998
 20
76.25
 30
0.0
 50
90.0
  0
INSERT
  5
1684
330
167E
100
AcDbEntity
  8
DIMENSION
 62
     3
100
AcDbBlockReference
  2
_OPEN30
 10
148.4999999999998
 20
69.25
 30
0.0
 50
270.0
  0
INSERT
  5
1686
330
167E
100
AcDbEntity
  8
0
100
AcDbBlockReference
  2
*U150
 10
0.0
 20
0.0
 30
0.0
  0
POINT
  5
1687
330
167E
100
AcDbEntity
  8
DEFPOINTS
 62
     0
100
AcDbPoint
 10
139.2320508075688
 20
76.25
 30
0.0
  0
POINT
  5
1688
330
167E
100
AcDbEntity
  8
DEFPOINTS
 62
     0
100
AcDbPoint
 10
139.2320508075688
 20
69.25
 30
0.0
  0
POINT
  5
1689
330
167E
100
AcDbEntity
  8
DEFPOINTS
 62
     0
100
AcDbPoint
 10
148.4999999999998
 20
69.25
 30
0.0
  0
ENDBLK
  5
168A
330
167E
100
AcDbEntity
  8
0
100
AcDbBlockEnd
  0
BLOCK
  5
17E3
330
1685
100
AcDbEntity
  8
0
100
AcDbBlockBegin
  2
*U150
 70
     1
 10
0.0
 20
0.0
 30
0.0
  3
*U150
  1

  0
TEXT
  5
17E4
330
1685
100
AcDbEntity
  8
DIMENSION
 62
     3
100
AcDbText
 10
147.9999999999998
 20
70.81294416243657
 30
0.0
 40
1.5
  1
7
 50
90.0
  7
GOTHIC
100
AcDbText
  0
TEXT
  5
17E5
330
1685
100
AcDbEntity
  8
DIMENSION
 62
     3
100
AcDbText
 10
146.4121827411167
 20
71.78756345177666
 30
0.0
 40
1.199999999999999
  1
 0
 50
90.0
  7
GOTHIC
100
AcDbText
  0
TEXT
  5
17E6
330
1685
100
AcDbEntity
  8
DIMENSION
 62
     3
100
AcDbText
 10
147.9999999999998
 20
71.75101522842641
 30
0.0
 40
1.199999999999999
  1
-0.1
 50
90.0
  7
GOTHIC
100
AcDbText
  0
ENDBLK
  5
17E7
330
1685
100
AcDbEntity
  8
0
100
AcDbBlockEnd
  0
BLOCK
  5
168C
330
168B
100
AcDbEntity
  8
0
100
AcDbBlockBegin
  2
*D151
 70
     1
 10
0.0
 20
0.0
 30
0.0
  3
*D151
  1

  0
LINE
  5
168D
330
168B
100
AcDbEntity
  8
DIMENSION
 62
     3
100
AcDbLine
 10
138.5537936351244
 20
71.13148005783421
 30
0.0
 11
139.1752611947665
 21
70.34804016076948
 31
0.0
  0
LINE
  5
168E
330
168B
100
AcDbEntity
  8
DIMENSION
 62
     3
100
AcDbLine
 10
139.7967287544086
 20
69.5646002637049
 30
0.0
 11
142.6243654822344
 21
66.00000000000027
 31
0.0
  0
LINE
  5
168F
330
168B
100
AcDbEntity
  8
DIMENSION
 62
     3
100
AcDbLine
 10
142.6243654822344
 20
66.00000000000027
 30
0.0
 11
144.8756345177674
 21
66.00000000000028
 31
0.0
  0
INSERT
  5
1690
330
168B
100
AcDbEntity
  8
DIMENSION
 62
     3
100
AcDbBlockReference
  2
_OPEN30
 10
139.7967287544086
 20
69.5646002637049
 30
0.0
 50
308.4233828316026
  0
INSERT
  5
1692
330
168B
100
AcDbEntity
  8
0
100
AcDbBlockReference
  2
*U152
 10
0.0
 20
0.0
 30
0.0
  0
POINT
  5
1693
330
168B
100
AcDbEntity
  8
DEFPOINTS
 62
     0
100
AcDbPoint
 10
139.7967287544086
 20
69.5646002637049
 30
0.0
  0
POINT
  5
1694
330
168B
100
AcDbEntity
  8
DEFPOINTS
 62
     0
100
AcDbPoint
 10
138.5537936351244
 20
71.13148005783421
 30
0.0
  0
ENDBLK
  5
1695
330
168B
100
AcDbEntity
  8
0
100
AcDbBlockEnd
  0
BLOCK
  5
17E8
330
1691
100
AcDbEntity
  8
0
100
AcDbBlockBegin
  2
*U152
 70
     1
 10
0.0
 20
0.0
 30
0.0
  3
*U152
  1

  0
TEXT
  5
17E9
330
1691
100
AcDbEntity
  8
DIMENSION
 62
     3
100
AcDbText
 10
143.0329949238588
 20
66.50000000000028
 30
0.0
 40
1.5
  1
R2
  7
GOTHIC
100
AcDbText
  0
ENDBLK
  5
17EA
330
1691
100
AcDbEntity
  8
0
100
AcDbBlockEnd
  0
BLOCK
  5
1697
330
1696
100
AcDbEntity
  8
0
100
AcDbBlockBegin
  2
*D153
 70
     1
 10
0.0
 20
0.0
 30
0.0
  3
*D153
  1

  0
LINE
  5
1698
330
1696
100
AcDbEntity
  8
DIMENSION
 62
     3
100
AcDbLine
 10
81.00000000000001
 20
71.74999999999998
 30
0.0
 11
75.0
 21
71.74999999999998
 31
0.0
  0
LINE
  5
1699
330
1696
100
AcDbEntity
  8
DIMENSION
 62
     3
100
AcDbLine
 10
89.87300535331744
 20
69.24999999999998
 30
0.0
 11
75.0
 21
69.24999999999998
 31
0.0
  0
LINE
  5
169A
330
1696
100
AcDbEntity
  8
DIMENSION
 62
     3
100
AcDbLine
 10
76.5
 20
72.74999999999998
 30
0.0
 11
76.5
 21
73.74999999999999
 31
0.0
  0
LINE
  5
169B
330
1696
100
AcDbEntity
  8
DIMENSION
 62
     3
100
AcDbLine
 10
76.5
 20
68.24999999999999
 30
0.0
 11
76.5
 21
67.24999999999998
 31
0.0
  0
LINE
  5
169C
330
1696
100
AcDbEntity
  8
DIMENSION
 62
     3
100
AcDbLine
 10
76.5
 20
77.50865295218019
 30
0.0
 11
76.5
 21
71.74999999999998
 31
0.0
  0
INSERT
  5
169E
330
1696
100
AcDbEntity
  8
0
100
AcDbBlockReference
  2
*U154
 10
0.0
 20
0.0
 30
0.0
  0
LINE
  5
169F
330
1696
100
AcDbEntity
  8
DIMENSION
 62
     3
100
AcDbLine
 10
76.5
 20
71.74999999999998
 30
0.0
 11
76.5
 21
69.24999999999998
 31
0.0
  0
LINE
  5
16A0
330
1696
100
AcDbEntity
  8
DIMENSION
 62
     3
100
AcDbLine
 10
76.5
 20
71.74999999999998
 30
0.0
 11
76.5
 21
69.24999999999998
 31
0.0
  0
INSERT
  5
16A1
330
1696
100
AcDbEntity
  8
DIMENSION
 62
     3
100
AcDbBlockReference
  2
_OPEN30
 10
76.5
 20
71.74999999999998
 30
0.0
 50
270.0
  0
INSERT
  5
16A2
330
1696
100
AcDbEntity
  8
DIMENSION
 62
     3
100
AcDbBlockReference
  2
_OPEN30
 10
76.5
 20
69.24999999999998
 30
0.0
 50
90.0
  0
POINT
  5
16A3
330
1696
100
AcDbEntity
  8
DEFPOINTS
 62
     0
100
AcDbPoint
 10
81.00000000000001
 20
71.74999999999998
 30
0.0
  0
POINT
  5
16A4
330
1696
100
AcDbEntity
  8
DEFPOINTS
 62
     0
100
AcDbPoint
 10
89.87300535331744
 20
69.24999999999998
 30
0.0
  0
POINT
  5
16A5
330
1696
100
AcDbEntity
  8
DEFPOINTS
 62
     0
100
AcDbPoint
 10
76.5
 20
69.24999999999998
 30
0.0
  0
ENDBLK
  5
16A6
330
1696
100
AcDbEntity
  8
0
100
AcDbBlockEnd
  0
BLOCK
  5
17EB
330
169D
100
AcDbEntity
  8
0
100
AcDbBlockBegin
  2
*U154
 70
     1
 10
0.0
 20
0.0
 30
0.0
  3
*U154
  1

  0
TEXT
  5
17EC
330
169D
100
AcDbEntity
  8
DIMENSION
 62
     3
100
AcDbText
 10
75.99999999999998
 20
74.19900828212942
 30
0.0
 40
1.5
  1
2.5
 50
90.0
  7
GOTHIC
100
AcDbText
  0
ENDBLK
  5
17ED
330
169D
100
AcDbEntity
  8
0
100
AcDbBlockEnd
  0
BLOCK
  5
16A8
330
16A7
100
AcDbEntity
  8
0
100
AcDbBlockBegin
  2
*D155
 70
     1
 10
0.0
 20
0.0
 30
0.0
  3
*D155
  1

  0
LINE
  5
16A9
330
16A7
100
AcDbEntity
  8
DIMENSION
 62
     3
100
AcDbLine
 10
94.50000000000004
 20
75.75
 30
0.0
 11
94.50000000000004
 21
81.0
 31
0.0
  0
LINE
  5
16AA
330
16A7
100
AcDbEntity
  8
DIMENSION
 62
     3
100
AcDbLine
 10
105.0
 20
78.0
 30
0.0
 11
105.0
 21
81.0
 31
0.0
  0
LINE
  5
16AB
330
16A7
100
AcDbEntity
  8
DIMENSION
 62
     3
100
AcDbLine
 10
95.50000000000004
 20
79.5
 30
0.0
 11
104.0
 21
79.5
 31
0.0
  0
INSERT
  5
16AC
330
16A7
100
AcDbEntity
  8
DIMENSION
 62
     3
100
AcDbBlockReference
  2
_OPEN30
 10
94.50000000000004
 20
79.5
 30
0.0
 50
180.0
  0
INSERT
  5
16AD
330
16A7
100
AcDbEntity
  8
DIMENSION
 62
     3
100
AcDbBlockReference
  2
_OPEN30
 10
105.0
 20
79.5
 30
0.0
  0
INSERT
  5
16AF
330
16A7
100
AcDbEntity
  8
0
100
AcDbBlockReference
  2
*U156
 10
0.0
 20
0.0
 30
0.0
  0
POINT
  5
16B0
330
16A7
100
AcDbEntity
  8
DEFPOINTS
 62
     0
100
AcDbPoint
 10
94.50000000000004
 20
75.75
 30
0.0
  0
POINT
  5
16B1
330
16A7
100
AcDbEntity
  8
DEFPOINTS
 62
     0
100
AcDbPoint
 10
105.0
 20
78.0
 30
0.0
  0
POINT
  5
16B2
330
16A7
100
AcDbEntity
  8
DEFPOINTS
 62
     0
100
AcDbPoint
 10
105.0
 20
79.5
 30
0.0
  0
ENDBLK
  5
16B3
330
16A7
100
AcDbEntity
  8
0
100
AcDbBlockEnd
  0
BLOCK
  5
17EE
330
16AE
100
AcDbEntity
  8
0
100
AcDbBlockBegin
  2
*U156
 70
     1
 10
0.0
 20
0.0
 30
0.0
  3
*U156
  1

  0
TEXT
  5
17EF
330
16AE
100
AcDbEntity
  8
DIMENSION
 62
     3
100
AcDbText
 10
97.76269035532996
 20
80.0
 30
0.0
 40
1.5
  1
10.5
  7
GOTHIC
100
AcDbText
  0
ENDBLK
  5
17F0
330
16AE
100
AcDbEntity
  8
0
100
AcDbBlockEnd
  0
BLOCK
  5
16B5
330
16B4
100
AcDbEntity
  8
0
100
AcDbBlockBegin
  2
*D157
 70
     1
 10
0.0
 20
0.0
 30
0.0
  3
*D157
  1

  0
LINE
  5
16B6
330
16B4
100
AcDbEntity
  8
DIMENSION
100
AcDbLine
 10
109.25
 20
46.49999999999997
 30
0.0
 11
114.7499999999999
 21
46.49999999999997
 31
0.0
  0
LINE
  5
16B7
330
16B4
100
AcDbEntity
  8
DIMENSION
100
AcDbLine
 10
109.25
 20
40.49999999999999
 30
0.0
 11
114.7499999999999
 21
40.49999999999999
 31
0.0
  0
LINE
  5
16B8
330
16B4
100
AcDbEntity
  8
DIMENSION
100
AcDbLine
 10
113.25
 20
45.49999999999998
 30
0.0
 11
113.25
 21
41.49999999999999
 31
0.0
  0
INSERT
  5
16B9
330
16B4
100
AcDbEntity
  8
DIMENSION
100
AcDbBlockReference
  2
_OPEN30
 10
113.25
 20
46.49999999999997
 30
0.0
 50
90.0
  0
INSERT
  5
16BA
330
16B4
100
AcDbEntity
  8
DIMENSION
100
AcDbBlockReference
  2
_OPEN30
 10
113.25
 20
40.49999999999999
 30
0.0
 50
270.0
  0
INSERT
  5
16BC
330
16B4
100
AcDbEntity
  8
0
100
AcDbBlockReference
  2
*U158
 10
0.0
 20
0.0
 30
0.0
  0
POINT
  5
16BD
330
16B4
100
AcDbEntity
  8
DEFPOINTS
 62
     0
100
AcDbPoint
 10
109.25
 20
46.49999999999997
 30
0.0
  0
POINT
  5
16BE
330
16B4
100
AcDbEntity
  8
DEFPOINTS
 62
     0
100
AcDbPoint
 10
109.25
 20
40.49999999999999
 30
0.0
  0
POINT
  5
16BF
330
16B4
100
AcDbEntity
  8
DEFPOINTS
 62
     0
100
AcDbPoint
 10
113.25
 20
40.49999999999999
 30
0.0
  0
ENDBLK
  5
16C0
330
16B4
100
AcDbEntity
  8
0
100
AcDbBlockEnd
  0
BLOCK
  5
1801
330
16BB
100
AcDbEntity
  8
0
100
AcDbBlockBegin
  2
*U158
 70
     1
 10
0.0
 20
0.0
 30
0.0
  3
*U158
  1

  0
TEXT
  5
1802
330
16BB
100
AcDbEntity
  8
DIMENSION
100
AcDbText
 10
112.7499999999999
 20
43.01269035532995
 30
0.0
 40
1.5
  1
6
 50
90.0
  7
GOTHIC
100
AcDbText
  0
ENDBLK
  5
1803
330
16BB
100
AcDbEntity
  8
0
100
AcDbBlockEnd
  0
BLOCK
  5
16C2
330
16C1
100
AcDbEntity
  8
0
100
AcDbBlockBegin
  2
*D159
 70
     1
 10
0.0
 20
0.0
 30
0.0
  3
*D159
  1

  0
LINE
  5
16C3
330
16C1
100
AcDbEntity
  8
DIMENSION
100
AcDbLine
 10
108.4820508075688
 20
47.0
 30
0.0
 11
119.2499999999999
 21
46.99999999999999
 31
0.0
  0
LINE
  5
16C4
330
16C1
100
AcDbEntity
  8
DIMENSION
100
AcDbLine
 10
108.4820508075688
 20
40.0
 30
0.0
 11
119.2499999999999
 21
40.0
 31
0.0
  0
LINE
  5
16C5
330
16C1
100
AcDbEntity
  8
DIMENSION
100
AcDbLine
 10
117.7499999999999
 20
45.99999999999999
 30
0.0
 11
117.7499999999999
 21
40.99999999999999
 31
0.0
  0
INSERT
  5
16C6
330
16C1
100
AcDbEntity
  8
DIMENSION
100
AcDbBlockReference
  2
_OPEN30
 10
117.7499999999999
 20
46.99999999999999
 30
0.0
 50
90.0
  0
INSERT
  5
16C7
330
16C1
100
AcDbEntity
  8
DIMENSION
100
AcDbBlockReference
  2
_OPEN30
 10
117.7499999999999
 20
40.0
 30
0.0
 50
270.0
  0
INSERT
  5
16C9
330
16C1
100
AcDbEntity
  8
0
100
AcDbBlockReference
  2
*U160
 10
0.0
 20
0.0
 30
0.0
  0
POINT
  5
16CA
330
16C1
100
AcDbEntity
  8
DEFPOINTS
 62
     0
100
AcDbPoint
 10
108.4820508075688
 20
47.0
 30
0.0
  0
POINT
  5
16CB
330
16C1
100
AcDbEntity
  8
DEFPOINTS
 62
     0
100
AcDbPoint
 10
108.4820508075688
 20
40.0
 30
0.0
  0
POINT
  5
16CC
330
16C1
100
AcDbEntity
  8
DEFPOINTS
 62
     0
100
AcDbPoint
 10
117.7499999999999
 20
40.0
 30
0.0
  0
ENDBLK
  5
16CD
330
16C1
100
AcDbEntity
  8
0
100
AcDbBlockEnd
  0
BLOCK
  5
1804
330
16C8
100
AcDbEntity
  8
0
100
AcDbBlockBegin
  2
*U160
 70
     1
 10
0.0
 20
0.0
 30
0.0
  3
*U160
  1

  0
TEXT
  5
1805
330
16C8
100
AcDbEntity
  8
DIMENSION
100
AcDbText
 10
117.2499999999998
 20
41.56294416243656
 30
0.0
 40
1.5
  1
7
 50
90.0
  7
GOTHIC
100
AcDbText
  0
TEXT
  5
1806
330
16C8
100
AcDbEntity
  8
DIMENSION
100
AcDbText
 10
115.6621827411167
 20
42.53756345177666
 30
0.0
 40
1.199999999999999
  1
 0
 50
90.0
  7
GOTHIC
100
AcDbText
  0
TEXT
  5
1807
330
16C8
100
AcDbEntity
  8
DIMENSION
100
AcDbText
 10
117.2499999999998
 20
42.5010152284264
 30
0.0
 40
1.199999999999999
  1
-0.1
 50
90.0
  7
GOTHIC
100
AcDbText
  0
ENDBLK
  5
1808
330
16C8
100
AcDbEntity
  8
0
100
AcDbBlockEnd
  0
BLOCK
  5
16CF
330
16CE
100
AcDbEntity
  8
0
100
AcDbBlockBegin
  2
*D161
 70
     1
 10
0.0
 20
0.0
 30
0.0
  3
*D161
  1

  0
LINE
  5
16D0
330
16CE
100
AcDbEntity
  8
DIMENSION
100
AcDbLine
 10
107.8037936351244
 20
41.88148005783419
 30
0.0
 11
108.4252611947665
 21
41.09804016076946
 31
0.0
  0
LINE
  5
16D1
330
16CE
100
AcDbEntity
  8
DIMENSION
100
AcDbLine
 10
109.0467287544085
 20
40.31460026370488
 30
0.0
 11
111.8743654822343
 21
36.75000000000024
 31
0.0
  0
LINE
  5
16D2
330
16CE
100
AcDbEntity
  8
DIMENSION
100
AcDbLine
 10
111.8743654822343
 20
36.75000000000024
 30
0.0
 11
114.1256345177672
 21
36.75000000000024
 31
0.0
  0
INSERT
  5
16D3
330
16CE
100
AcDbEntity
  8
DIMENSION
100
AcDbBlockReference
  2
_OPEN30
 10
109.0467287544085
 20
40.31460026370488
 30
0.0
 50
308.4233828316026
  0
INSERT
  5
16D5
330
16CE
100
AcDbEntity
  8
0
100
AcDbBlockReference
  2
*U162
 10
0.0
 20
0.0
 30
0.0
  0
POINT
  5
16D6
330
16CE
100
AcDbEntity
  8
DEFPOINTS
 62
     0
100
AcDbPoint
 10
109.0467287544085
 20
40.31460026370488
 30
0.0
  0
POINT
  5
16D7
330
16CE
100
AcDbEntity
  8
DEFPOINTS
 62
     0
100
AcDbPoint
 10
107.8037936351244
 20
41.88148005783419
 30
0.0
  0
ENDBLK
  5
16D8
330
16CE
100
AcDbEntity
  8
0
100
AcDbBlockEnd
  0
BLOCK
  5
180F
330
16D4
100
AcDbEntity
  8
0
100
AcDbBlockBegin
  2
*U162
 70
     1
 10
0.0
 20
0.0
 30
0.0
  3
*U162
  1

  0
TEXT
  5
1810
330
16D4
100
AcDbEntity
  8
DIMENSION
100
AcDbText
 10
112.2829949238586
 20
37.25000000000022
 30
0.0
 40
1.5
  1
R2
  7
GOTHIC
100
AcDbText
  0
ENDBLK
  5
1811
330
16D4
100
AcDbEntity
  8
0
100
AcDbBlockEnd
  0
BLOCK
  5
16DA
330
16D9
100
AcDbEntity
  8
0
100
AcDbBlockBegin
  2
*D163
 70
     1
 10
0.0
 20
0.0
 30
0.0
  3
*D163
  1

  0
LINE
  5
16DB
330
16D9
100
AcDbEntity
  8
DIMENSION
100
AcDbLine
 10
50.25
 20
42.49999999999999
 30
0.0
 11
44.24999999999998
 21
42.49999999999999
 31
0.0
  0
LINE
  5
16DC
330
16D9
100
AcDbEntity
  8
DIMENSION
100
AcDbLine
 10
59.12300535331742
 20
39.99999999999999
 30
0.0
 11
44.24999999999998
 21
40.0
 31
0.0
  0
LINE
  5
16DD
330
16D9
100
AcDbEntity
  8
DIMENSION
100
AcDbLine
 10
45.74999999999998
 20
43.49999999999999
 30
0.0
 11
45.74999999999998
 21
44.49999999999999
 31
0.0
  0
LINE
  5
16DE
330
16D9
100
AcDbEntity
  8
DIMENSION
100
AcDbLine
 10
45.74999999999998
 20
39.0
 30
0.0
 11
45.74999999999998
 21
37.99999999999999
 31
0.0
  0
LINE
  5
16DF
330
16D9
100
AcDbEntity
  8
DIMENSION
100
AcDbLine
 10
45.74999999999999
 20
48.25865295218018
 30
0.0
 11
45.74999999999998
 21
42.49999999999999
 31
0.0
  0
INSERT
  5
16E1
330
16D9
100
AcDbEntity
  8
0
100
AcDbBlockReference
  2
*U164
 10
0.0
 20
0.0
 30
0.0
  0
LINE
  5
16E2
330
16D9
100
AcDbEntity
  8
DIMENSION
100
AcDbLine
 10
45.74999999999998
 20
42.49999999999999
 30
0.0
 11
45.74999999999998
 21
40.0
 31
0.0
  0
LINE
  5
16E3
330
16D9
100
AcDbEntity
  8
DIMENSION
100
AcDbLine
 10
45.74999999999998
 20
42.49999999999999
 30
0.0
 11
45.74999999999998
 21
40.0
 31
0.0
  0
INSERT
  5
16E4
330
16D9
100
AcDbEntity
  8
DIMENSION
100
AcDbBlockReference
  2
_OPEN30
 10
45.74999999999998
 20
42.49999999999999
 30
0.0
 50
270.0
  0
INSERT
  5
16E5
330
16D9
100
AcDbEntity
  8
DIMENSION
100
AcDbBlockReference
  2
_OPEN30
 10
45.74999999999998
 20
40.0
 30
0.0
 50
90.0
  0
POINT
  5
16E6
330
16D9
100
AcDbEntity
  8
DEFPOINTS
 62
     0
100
AcDbPoint
 10
50.25
 20
42.49999999999999
 30
0.0
  0
POINT
  5
16E7
330
16D9
100
AcDbEntity
  8
DEFPOINTS
 62
     0
100
AcDbPoint
 10
59.12300535331742
 20
39.99999999999999
 30
0.0
  0
POINT
  5
16E8
330
16D9
100
AcDbEntity
  8
DEFPOINTS
 62
     0
100
AcDbPoint
 10
45.74999999999998
 20
40.0
 30
0.0
  0
ENDBLK
  5
16E9
330
16D9
100
AcDbEntity
  8
0
100
AcDbBlockEnd
  0
BLOCK
  5
1809
330
16E0
100
AcDbEntity
  8
0
100
AcDbBlockBegin
  2
*U164
 70
     1
 10
0.0
 20
0.0
 30
0.0
  3
*U164
  1

  0
TEXT
  5
180A
330
16E0
100
AcDbEntity
  8
DIMENSION
100
AcDbText
 10
45.24999999999997
 20
44.94900828212941
 30
0.0
 40
1.5
  1
2.5
 50
90.0
  7
GOTHIC
100
AcDbText
  0
ENDBLK
  5
180B
330
16E0
100
AcDbEntity
  8
0
100
AcDbBlockEnd
  0
BLOCK
  5
16EB
330
16EA
100
AcDbEntity
  8
0
100
AcDbBlockBegin
  2
*D165
 70
     1
 10
0.0
 20
0.0
 30
0.0
  3
*D165
  1

  0
LINE
  5
16EC
330
16EA
100
AcDbEntity
  8
DIMENSION
100
AcDbLine
 10
63.75000000000002
 20
46.5
 30
0.0
 11
63.75000000000002
 21
51.75
 31
0.0
  0
LINE
  5
16ED
330
16EA
100
AcDbEntity
  8
DIMENSION
100
AcDbLine
 10
74.25
 20
48.75
 30
0.0
 11
74.25
 21
51.75
 31
0.0
  0
LINE
  5
16EE
330
16EA
100
AcDbEntity
  8
DIMENSION
100
AcDbLine
 10
64.75000000000001
 20
50.25
 30
0.0
 11
73.25
 21
50.25
 31
0.0
  0
INSERT
  5
16EF
330
16EA
100
AcDbEntity
  8
DIMENSION
100
AcDbBlockReference
  2
_OPEN30
 10
63.75000000000002
 20
50.25
 30
0.0
 50
180.0
  0
INSERT
  5
16F0
330
16EA
100
AcDbEntity
  8
DIMENSION
100
AcDbBlockReference
  2
_OPEN30
 10
74.25
 20
50.25
 30
0.0
  0
INSERT
  5
16F2
330
16EA
100
AcDbEntity
  8
0
100
AcDbBlockReference
  2
*U166
 10
0.0
 20
0.0
 30
0.0
  0
POINT
  5
16F3
330
16EA
100
AcDbEntity
  8
DEFPOINTS
 62
     0
100
AcDbPoint
 10
63.75000000000002
 20
46.5
 30
0.0
  0
POINT
  5
16F4
330
16EA
100
AcDbEntity
  8
DEFPOINTS
 62
     0
100
AcDbPoint
 10
74.25
 20
48.75
 30
0.0
  0
POINT
  5
16F5
330
16EA
100
AcDbEntity
  8
DEFPOINTS
 62
     0
100
AcDbPoint
 10
74.25
 20
50.25
 30
0.0
  0
ENDBLK
  5
16F6
330
16EA
100
AcDbEntity
  8
0
100
AcDbBlockEnd
  0
BLOCK
  5
180C
330
16F1
100
AcDbEntity
  8
0
100
AcDbBlockBegin
  2
*U166
 70
     1
 10
0.0
 20
0.0
 30
0.0
  3
*U166
  1

  0
TEXT
  5
180D
330
16F1
100
AcDbEntity
  8
DIMENSION
100
AcDbText
 10
67.01269035532996
 20
50.75
 30
0.0
 40
1.5
  1
10.5
  7
GOTHIC
100
AcDbText
  0
ENDBLK
  5
180E
330
16F1
100
AcDbEntity
  8
0
100
AcDbBlockEnd
  0
BLOCK
  5
16F8
330
16F7
100
AcDbEntity
  8
0
100
AcDbBlockBegin
  2
*D167
 70
     1
 10
0.0
 20
0.0
 30
0.0
  3
*D167
  1

  0
LINE
  5
16F9
330
16F7
100
AcDbEntity
  8
DIMENSION
100
AcDbLine
 10
74.75106704428966
 20
74.4227306308597
 30
0.0
 11
73.74893295571027
 21
72.57726936914018
 31
0.0
  0
LINE
  5
16FA
330
16F7
100
AcDbEntity
  8
DIMENSION
100
AcDbLine
 10
73.27172624686298
 20
71.69847829213094
 30
0.0
 11
68.54822335025385
 21
63.00000000000002
 31
0.0
  0
LINE
  5
16FB
330
16F7
100
AcDbEntity
  8
DIMENSION
100
AcDbLine
 10
68.54822335025385
 20
63.00000000000002
 30
0.0
 11
63.95177664974625
 21
63.00000000000002
 31
0.0
  0
INSERT
  5
16FC
330
16F7
100
AcDbEntity
  8
DIMENSION
100
AcDbBlockReference
  2
_OPEN30
 10
75.22827375313695
 20
75.30152170786898
 30
0.0
 50
61.49687387470724
  0
INSERT
  5
16FD
330
16F7
100
AcDbEntity
  8
DIMENSION
100
AcDbBlockReference
  2
_OPEN30
 10
73.27172624686298
 20
71.69847829213094
 30
0.0
 50
241.4968738747073
  0
INSERT
  5
16FF
330
16F7
100
AcDbEntity
  8
0
100
AcDbBlockReference
  2
*U168
 10
0.0
 20
0.0
 30
0.0
  0
POINT
  5
1700
330
16F7
100
AcDbEntity
  8
DEFPOINTS
 62
     0
100
AcDbPoint
 10
73.27172624686298
 20
71.69847829213094
 30
0.0
  0
POINT
  5
1701
330
16F7
100
AcDbEntity
  8
DEFPOINTS
 62
     0
100
AcDbPoint
 10
75.22827375313695
 20
75.30152170786898
 30
0.0
  0
ENDBLK
  5
1702
330
16F7
100
AcDbEntity
  8
0
100
AcDbBlockEnd
  0
BLOCK
  5
1827
330
16FE
100
AcDbEntity
  8
0
100
AcDbBlockBegin
  2
*U168
 70
     1
 10
0.0
 20
0.0
 30
0.0
  3
*U168
  1

  0
TEXT
  5
1828
330
16FE
100
AcDbEntity
  8
DIMENSION
100
AcDbText
 10
63.55583756345179
 20
63.74365482233504
 30
0.0
 40
1.5
  1
φ4.1
  7
GOTHIC
100
AcDbText
  0
ENDBLK
  5
1829
330
16FE
100
AcDbEntity
  8
0
100
AcDbBlockEnd
  0
BLOCK
  5
175E
330
175D
100
AcDbEntity
  8
0
100
AcDbBlockBegin
  2
*U169
 70
     1
 10
0.0
 20
0.0
 30
0.0
  3
*U169
  1

  0
TEXT
  5
175F
330
175D
100
AcDbEntity
  8
DIMENSION
100
AcDbText
 10
112.7499999999999
 20
43.01269035532995
 30
0.0
 40
1.5
  1
6
 50
90.0
  7
GOTHIC
100
AcDbText
  0
ENDBLK
  5
1760
330
175D
100
AcDbEntity
  8
0
100
AcDbBlockEnd
  0
BLOCK
  5
176D
330
176C
100
AcDbEntity
  8
0
100
AcDbBlockBegin
  2
*U170
 70
     1
 10
0.0
 20
0.0
 30
0.0
  3
*U170
  1

  0
TEXT
  5
176E
330
176C
100
AcDbEntity
  8
DIMENSION
100
AcDbText
 10
112.2829949238586
 20
37.25000000000024
 30
0.0
 40
1.5
  1
R2
  7
GOTHIC
100
AcDbText
  0
ENDBLK
  5
176F
330
176C
100
AcDbEntity
  8
0
100
AcDbBlockEnd
  0
BLOCK
  5
1771
330
1770
100
AcDbEntity
  8
0
100
AcDbBlockBegin
  2
*U171
 70
     1
 10
0.0
 20
0.0
 30
0.0
  3
*U171
  1

  0
TEXT
  5
1772
330
1770
100
AcDbEntity
  8
DIMENSION
100
AcDbText
 10
93.2099410972113
 20
75.03200179279101
 30
0.0
 40
1.5
  1
1.5
 50
90.0
  7
GOTHIC
100
AcDbText
  0
ENDBLK
  5
1773
330
1770
100
AcDbEntity
  8
0
100
AcDbBlockEnd
  0
BLOCK
  5
17B1
330
17B0
100
AcDbEntity
  8
0
100
AcDbBlockBegin
  2
*U172
 70
     1
 10
0.0
 20
0.0
 30
0.0
  3
*U172
  1

  0
TEXT
  5
17B2
330
17B0
100
AcDbEntity
  8
DIMENSION
 62
     3
100
AcDbText
 10
-34.99648357875106
 20
-0.9227066182925984
 30
0.0
 40
1.5
  1
90°
 50
90.0
  7
GOTHIC
100
AcDbText
  0
ENDBLK
  5
17B3
330
17B0
100
AcDbEntity
  8
0
100
AcDbBlockEnd
  0
BLOCK
  5
17B5
330
17B4
100
AcDbEntity
  8
0
100
AcDbBlockBegin
  2
*U173
 70
     1
 10
0.0
 20
0.0
 30
0.0
  3
*U173
  1

  0
TEXT
  5
17B6
330
17B4
100
AcDbEntity
  8
DIMENSION
 62
     3
100
AcDbText
 10
16.60406091370558
 20
-11.12264834882598
 30
0.0
 40
1.5
  1
φ4深2.5
  7
GOTHIC
100
AcDbText
  0
ENDBLK
  5
17B7
330
17B4
100
AcDbEntity
  8
0
100
AcDbBlockEnd
  0
BLOCK
  5
17B9
330
17B8
100
AcDbEntity
  8
0
100
AcDbBlockBegin
  2
*U174
 70
     1
 10
0.0
 20
0.0
 30
0.0
  3
*U174
  1

  0
TEXT
  5
17BA
330
17B8
100
AcDbEntity
  8
DIMENSION
 62
     3
100
AcDbText
 10
39.25351642124894
 20
72.65595323437233
 30
0.0
 40
1.5
  1
90°
 50
90.0
  7
GOTHIC
100
AcDbText
  0
ENDBLK
  5
17BB
330
17B8
100
AcDbEntity
  8
0
100
AcDbBlockEnd
  0
BLOCK
  5
17F2
330
17F1
100
AcDbEntity
  8
0
100
AcDbBlockBegin
  2
*U175
 70
     1
 10
0.0
 20
0.0
 30
0.0
  3
*U175
  1

  0
INSERT
  5
17F3
330
17F1
100
AcDbEntity
  8
TEXT
100
AcDbBlockReference
  2
_OPEN30
 10
35.49419414309566
 20
6.75
 30
0.0
  0
POLYLINE
  5
17F4
330
17F1
100
AcDbEntity
  8
TEXT
100
AcDb2dPolyline
 66
     1
 10
0.0
 20
0.0
 30
0.0
  0
VERTEX
  5
17F5
330
17F4
100
AcDbEntity
  8
TEXT
100
AcDbVertex
100
AcDb2dVertex
 10
34.49419414309566
 20
6.75
 30
0.0
  0
VERTEX
  5
17F6
330
17F4
100
AcDbEntity
  8
TEXT
100
AcDbVertex
100
AcDb2dVertex
 10
32.49999999999999
 20
6.75
 30
0.0
  0
SEQEND
  5
17F7
330
17F4
100
AcDbEntity
  8
TEXT
  0
ENDBLK
  5
17F8
330
17F1
100
AcDbEntity
  8
0
100
AcDbBlockEnd
  0
BLOCK
  5
17FA
330
17F9
100
AcDbEntity
  8
0
100
AcDbBlockBegin
  2
*U176
 70
     1
 10
0.0
 20
0.0
 30
0.0
  3
*U176
  1

  0
INSERT
  5
17FB
330
17F9
100
AcDbEntity
  8
TEXT
100
AcDbBlockReference
  2
_OPEN30
 10
35.49419414309566
 20
-6.75
 30
0.0
  0
POLYLINE
  5
17FC
330
17F9
100
AcDbEntity
  8
TEXT
100
AcDb2dPolyline
 66
     1
 10
0.0
 20
0.0
 30
0.0
  0
VERTEX
  5
17FD
330
17FC
100
AcDbEntity
  8
TEXT
100
AcDbVertex
100
AcDb2dVertex
 10
34.49419414309566
 20
-6.75
 30
0.0
  0
VERTEX
  5
17FE
330
17FC
100
AcDbEntity
  8
TEXT
100
AcDbVertex
100
AcDb2dVertex
 10
32.49999999999999
 20
-6.75
 30
0.0
  0
SEQEND
  5
17FF
330
17FC
100
AcDbEntity
  8
TEXT
  0
ENDBLK
  5
1800
330
17F9
100
AcDbEntity
  8
0
100
AcDbBlockEnd
  0
BLOCK
  5
18DE
330
18D0
100
AcDbEntity
  8
0
100
AcDbBlockBegin
  2
*D177
 70
     1
 10
0.0
 20
0.0
 30
0.0
  3
*D177
  1

  0
LINE
  5
18D1
330
18D0
100
AcDbEntity
  8
DIMENSION
 62
     0
100
AcDbLine
 10
19.60164880763443
 20
79.875
 30
0.0
 11
19.60164880763443
 21
84.66781585873304
 31
0.0
  0
LINE
  5
18D2
330
18D0
100
AcDbEntity
  8
DIMENSION
 62
     0
100
AcDbLine
 10
16.83751239404648
 20
79.42770966817178
 30
0.0
 11
14.88192588197644
 21
83.62147847696114
 31
0.0
  0
ARC
  5
18D3
330
18D0
100
AcDbEntity
  8
DIMENSION
 62
     0
100
AcDbCircle
 10
19.60164880763443
 20
73.5
 30
0.0
 40
9.917815858733039
100
AcDbArc
 50
61.03769325236589
 51
75.51884662618295
  0
ARC
  5
18D4
330
18D0
100
AcDbEntity
  8
DIMENSION
 62
     0
100
AcDbCircle
 10
19.60164880763443
 20
73.5
 30
0.0
 40
9.917815858733039
100
AcDbArc
 50
129.4811533738171
 51
143.9623067476341
  0
ARC
  5
18D5
330
18D0
100
AcDbEntity
  8
DIMENSION
 62
     0
100
AcDbCircle
 10
19.60164880763443
 20
73.5
 30
0.0
 40
9.917815858733039
100
AcDbArc
 50
90.0
 51
115.0
  0
SOLID
  5
18D6
330
18D0
100
AcDbEntity
  8
DIMENSION
 62
     0
100
AcDbTrace
 10
22.02919811475531
 20
82.68938228413061
 30
0.0
 11
22.13422796018739
 21
83.51607036074293
 31
0.0
 12
19.60164880763443
 22
83.41781585873304
 32
0.0
 13
19.60164880763443
 23
83.41781585873304
 33
0.0
  0
SOLID
  5
18D7
330
18D0
100
AcDbEntity
  8
DIMENSION
 62
     0
100
AcDbTrace
 10
13.07337835505927
 20
81.50732836427563
 30
0.0
 11
13.51794119978528
 21
80.80248205369894
 31
0.0
 12
15.41019870915231
 22
82.48859374316534
 32
0.0
 13
15.41019870915231
 23
82.48859374316534
 33
0.0
  0
MTEXT
  5
18D8
330
18D0
100
AcDbEntity
  8
DIMENSION
 62
     0
100
AcDbMText
 10
16.37284250237053
 20
88.06420405783148
 30
0.0
 40
2.5
 41
0.0
 71
     5
 72
     1
  1
\A1;25°
  7
GOTHIC
 11
0.9762960071199332
 21
0.2164396139381035
 31
0.0
  0
POINT
  5
18D9
330
18D0
100
AcDbEntity
  8
DEFPOINTS
 62
     0
100
AcDbPoint
 10
18.16424131496134
 20
83.31309997440888
 30
0.0
  0
POINT
  5
18DA
330
18D0
100
AcDbEntity
  8
DEFPOINTS
 62
     0
100
AcDbPoint
 10
17.10164880763443
 20
78.8612673012739
 30
0.0
  0
POINT
  5
18DB
330
18D0
100
AcDbEntity
  8
DEFPOINTS
 62
     0
100
AcDbPoint
 10
19.60164880763443
 20
73.5
 30
0.0
  0
POINT
  5
18DC
330
18D0
100
AcDbEntity
  8
DEFPOINTS
 62
     0
100
AcDbPoint
 10
19.60164880763443
 20
79.24999999999998
 30
0.0
  0
POINT
  5
18DD
330
18D0
100
AcDbEntity
  8
DEFPOINTS
 62
     0
100
AcDbPoint
 10
19.60164880763443
 20
73.5
 30
0.0
  0
ENDBLK
  5
18DF
330
18D0
100
AcDbEntity
  8
0
100
AcDbBlockEnd
  0
ENDSEC
  0
SECTION
  2
ENTITIES
  0
TEXT
  5
182A
330
11F2
100
AcDbEntity
  8
TEXT
100
AcDbText
 10
15.0
 20
36.75
 30
0.0
 40
1.5
  1
◇ブレード仕様
  7
GOTHIC
 11
15.0
 21
37.5
 31
0.0
100
AcDbText
 73
     2
  0
TEXT
  5
182B
330
11F2
100
AcDbEntity
  8
TEXT
100
AcDbText
 10
18.0
 20
33.75
 30
0.0
 40
1.5
  1
切刃有効長　＝　11
  7
GOTHIC
 11
18.0
 21
34.5
 31
0.0
100
AcDbText
 73
     2
  0
TEXT
  5
182C
330
11F2
100
AcDbEntity
  8
TEXT
100
AcDbText
 10
18.0
 20
30.75
 30
0.0
 40
1.5
  1
刃開き最大　＝　 3
  7
GOTHIC
 11
18.0
 21
31.5
 31
0.0
100
AcDbText
 73
     2
  0
LINE
  5
182D
330
11F2
100
AcDbEntity
  8
TEXT
100
AcDbLine
 10
18.0
 20
33.0
 30
0.0
 11
36.0
 21
33.0
 31
0.0
  0
LINE
  5
182E
330
11F2
100
AcDbEntity
  8
TEXT
100
AcDbLine
 10
18.0
 20
30.0
 30
0.0
 11
36.0
 21
30.0
 31
0.0
  0
TEXT
  5
182F
330
11F2
100
AcDbEntity
  8
TEXT
100
AcDbText
 10
21.0
 20
48.75
 30
0.0
 40
1.5
  1
ＮＴ０３ＡＪＹ
  7
GOTHIC
 11
21.0
 21
49.5
 31
0.0
100
AcDbText
 73
     2
  0
TEXT
  5
1831
330
11F2
100
AcDbEntity
  8
TEXT
100
AcDbText
 10
21.0
 20
42.75
 30
0.0
 40
1.5
  1
2005/03/23
  7
GOTHIC
 11
21.0
 21
43.5
 31
0.0
100
AcDbText
 73
     2
  0
LINE
  5
1832
330
11F2
100
AcDbEntity
  8
CENTER
100
AcDbLine
 10
74.25
 20
80.94496302382593
 30
0.0
 11
74.25
 21
66.21235668150392
 31
0.0
  0
LINE
  5
1833
330
11F2
100
AcDbEntity
  8
CENTER
100
AcDbLine
 10
15.19675874860751
 20
73.5
 30
0.0
 11
25.47324670362093
 21
73.5
 31
0.0
  0
ARC
  5
1834
330
11F2
100
AcDbEntity
  8
LINE
  6
BYBLOCK
100
AcDbCircle
 10
74.25
 20
73.49999999999998
 30
0.0
 40
8.5
100
AcDbArc
 50
317.4315457967069
 51
0.0
  0
LINE
  5
1835
330
11F2
100
AcDbEntity
  8
LINE
100
AcDbLine
 10
63.25
 20
73.49999999999998
 30
0.0
 11
63.25
 21
73.49999999999998
 31
0.0
  0
LINE
  5
1836
330
11F2
100
AcDbEntity
  8
LINE
100
AcDbLine
 10
63.75
 20
72.99999999999998
 30
0.0
 11
65.25
 21
72.99999999999998
 31
0.0
  0
LINE
  5
1837
330
11F2
100
AcDbEntity
  8
LINE
100
AcDbLine
 10
65.75
 20
73.49999999999998
 30
0.0
 11
65.75
 21
73.49999999999998
 31
0.0
  0
ARC
  5
1838
330
11F2
100
AcDbEntity
  8
LINE
100
AcDbCircle
 10
65.25
 20
73.49999999999998
 30
0.0
 40
0.5
100
AcDbArc
 50
270.0
 51
0.0
  0
ARC
  5
1839
330
11F2
100
AcDbEntity
  8
LINE
100
AcDbCircle
 10
63.75
 20
73.49999999999998
 30
0.0
 40
0.5
100
AcDbArc
 50
180.0
 51
270.0
  0
ARC
  5
183A
330
11F2
100
AcDbEntity
  8
LINE
100
AcDbCircle
 10
63.75
 20
73.49999999999998
 30
0.0
 40
0.5
100
AcDbArc
 50
90.0
 51
180.0
  0
ARC
  5
183B
330
11F2
100
AcDbEntity
  8
LINE
100
AcDbCircle
 10
65.25
 20
73.49999999999998
 30
0.0
 40
0.5
100
AcDbArc
 50
0.0
 51
90.0
  0
LINE
  5
183C
330
11F2
100
AcDbEntity
  8
LINE
100
AcDbLine
 10
65.75
 20
73.49999999999998
 30
0.0
 11
65.75
 21
73.49999999999998
 31
0.0
  0
LINE
  5
183D
330
11F2
100
AcDbEntity
  8
LINE
100
AcDbLine
 10
63.75
 20
73.99999999999998
 30
0.0
 11
65.25
 21
73.99999999999998
 31
0.0
  0
LINE
  5
183E
330
11F2
100
AcDbEntity
  8
LINE
100
AcDbLine
 10
63.25
 20
73.49999999999998
 30
0.0
 11
63.25
 21
73.49999999999998
 31
0.0
  0
ARC
  5
183F
330
11F2
100
AcDbEntity
  8
LINE
  6
BYBLOCK
100
AcDbCircle
 10
74.25
 20
73.49999999999998
 30
0.0
 40
9.0
100
AcDbArc
 50
320.2909834469317
 51
354.6317953008377
  0
CIRCLE
  5
1840
330
11F2
100
AcDbEntity
  8
LINE
  6
BYBLOCK
100
AcDbCircle
 10
74.25
 20
73.49999999999998
 30
0.0
 40
2.049999999999998
  0
ARC
  5
1841
330
11F2
100
AcDbEntity
  8
LINE
  6
BYBLOCK
100
AcDbCircle
 10
74.25
 20
73.49999999999998
 30
0.0
 40
9.0
100
AcDbArc
 50
140.2909834469317
 51
176.8164916468281
  0
ARC
  5
1842
330
11F2
100
AcDbEntity
  8
LINE
  6
BYBLOCK
100
AcDbCircle
 10
74.25
 20
73.49999999999998
 30
0.0
 40
8.5
100
AcDbArc
 50
137.4315457967064
 51
180.0
  0
LINE
  5
1843
330
11F2
100
AcDbEntity
  8
LINE
100
AcDbLine
 10
24.10164880763443
 20
79.25000000000001
 30
0.0
 11
24.10164880763443
 21
73.5
 31
0.0
  0
LINE
  5
1844
330
11F2
100
AcDbEntity
  8
LINE
100
AcDbLine
 10
17.10164880763443
 20
73.5
 30
0.0
 11
17.10164880763443
 21
79.25000000000001
 31
0.0
  0
LINE
  5
1845
330
11F2
100
AcDbEntity
  8
LINE
100
AcDbLine
 10
17.10164880763443
 20
74.0
 30
0.0
 11
19.36849497855692
 21
74.0
 31
0.0
  0
LINE
  5
1846
330
11F2
100
AcDbEntity
  8
LINE
100
AcDbLine
 10
19.60164880763443
 20
73.5
 30
0.0
 11
19.60164880763443
 21
73.5
 31
0.0
  0
LINE
  5
1847
330
11F2
100
AcDbEntity
  8
LINE
100
AcDbLine
 10
20.60164880763442
 20
73.5
 30
0.0
 11
20.60164880763442
 21
74.0
 31
0.0
  0
LINE
  5
1848
330
11F2
100
AcDbEntity
  8
LINE
100
AcDbLine
 10
20.60164880763442
 20
73.5
 30
0.0
 11
20.60164880763442
 21
73.0
 31
0.0
  0
LINE
  5
1849
330
11F2
100
AcDbEntity
  8
LINE
100
AcDbLine
 10
19.60164880763443
 20
73.5
 30
0.0
 11
19.60164880763443
 21
73.5
 31
0.0
  0
LINE
  5
184A
330
11F2
100
AcDbEntity
  8
LINE
100
AcDbLine
 10
17.10164880763443
 20
73.0
 30
0.0
 11
19.36849497855692
 21
73.0
 31
0.0
  0
LINE
  5
184B
330
11F2
100
AcDbEntity
  8
CENTER
100
AcDbLine
 10
63.25
 20
73.50000000000001
 30
0.0
 11
106.25
 21
73.49999999999993
 31
0.0
  0
LINE
  5
184C
330
11F2
100
AcDbEntity
  8
LINE
100
AcDbLine
 10
51.25
 20
73.5
 30
0.0
 11
63.25
 21
73.49999999999998
 31
0.0
  0
TEXT
  5
184D
330
11F2
100
AcDbEntity
  8
TEXT
100
AcDbText
 10
69.91601295855858
 20
69.2920840877438
 30
0.0
 40
1.5
  1
Ｖ
 50
127.5000000000002
  7
GOTHIC
 72
     1
 11
68.89486495303405
 21
69.39086035419112
 31
0.0
100
AcDbText
 73
     2
  0
TEXT
  5
184E
330
11F2
100
AcDbEntity
  8
TEXT
100
AcDbText
 10
68.95546703596949
 20
70.60337770967707
 30
0.0
 40
1.5
  1
Ｅ
 50
112.4999999999995
  7
GOTHIC
 72
     1
 11
68.01381315554872
 21
70.91688683153559
 31
0.0
100
AcDbText
 73
     2
  0
TEXT
  5
184F
330
11F2
100
AcDbEntity
  8
TEXT
100
AcDbText
 10
68.39269916631109
 20
72.02283144371796
 30
0.0
 40
1.5
  1
Ｓ
 50
97.49999999999971
  7
GOTHIC
 72
     1
 11
67.5577471857267
 21
72.61894820251459
 31
0.0
100
AcDbText
 73
     2
  0
TEXT
  5
1850
330
11F2
100
AcDbEntity
  8
TEXT
100
AcDbText
 10
68.20996249720302
 20
73.58914575035858
 30
0.0
 40
1.5
  1
Ｓ
 50
82.5000000000003
  7
GOTHIC
 72
     1
 11
67.5577471857267
 21
74.38105179748529
 31
0.0
100
AcDbText
 73
     2
  0
TEXT
  5
1851
330
11F2
100
AcDbEntity
  8
TEXT
100
AcDbText
 10
68.45797857389491
 20
75.19557889805811
 30
0.0
 40
1.5
  1
Ｅ
 50
67.50000000000042
  7
GOTHIC
 72
     1
 11
68.01381315554874
 21
76.08311316846426
 31
0.0
100
AcDbText
 73
     2
  0
TEXT
  5
1852
330
11F2
100
AcDbEntity
  8
TEXT
100
AcDbText
 10
69.06374695794642
 20
76.59722123584835
 30
0.0
 40
1.5
  1
Ｌ
 50
52.49999999999982
  7
GOTHIC
 72
     1
 11
68.8948649530341
 21
77.60913964580876
 31
0.0
100
AcDbText
 73
     2
  0
TEXT
  5
1853
330
11F2
100
AcDbEntity
  8
TEXT
100
AcDbText
 10
80.84159499032837
 20
76.55510379210856
 30
0.0
 40
1.5
  1
Ｊ
 50
120.0000000000001
  7
GOTHIC
 72
     1
 11
79.86707593749004
 21
76.74302030456845
 31
0.0
100
AcDbText
 73
     2
  0
TEXT
  5
1854
330
11F2
100
AcDbEntity
  8
TEXT
100
AcDbText
 10
81.42065183601365
 20
74.6966770423775
 30
0.0
 40
1.5
  1
Ａ
 50
104.9999999999996
  7
GOTHIC
 72
     1
 11
80.51503413472509
 21
75.17871083695296
 31
0.0
100
AcDbText
 73
     2
  0
TEXT
  5
1855
330
11F2
100
AcDbEntity
  8
TEXT
100
AcDbText
 10
81.54695431472072
 20
72.79999999999994
 30
0.0
 40
1.5
  1
３
 50
89.9999999999992
  7
GOTHIC
 72
     1
 11
80.79695431472073
 21
73.49999999999996
 31
0.0
100
AcDbText
 73
     2
  0
TEXT
  5
1856
330
11F2
100
AcDbEntity
  8
TEXT
100
AcDbText
 10
81.13008424652356
 20
70.98355746501926
 30
0.0
 40
1.5
  1
０
 50
75.00000000000042
  7
GOTHIC
 72
     1
 11
80.57387225612339
 21
71.80552353593404
 31
0.0
100
AcDbText
 73
     2
  0
TEXT
  5
1857
330
11F2
100
AcDbEntity
  8
TEXT
100
AcDbText
 10
80.16659499032844
 20
69.27576191278228
 30
0.0
 40
1.5
  1
Ｔ
 50
59.99999999999985
  7
GOTHIC
 72
     1
 11
79.86707593749011
 21
70.2569796954314
 31
0.0
100
AcDbText
 73
     2
  0
TEXT
  5
1858
330
11F2
100
AcDbEntity
  8
TEXT
100
AcDbText
 10
78.88603613492657
 20
67.87401437141214
 30
0.0
 40
1.5
  1
Ｎ
 50
45.00000000000057
  7
GOTHIC
 72
     1
 11
78.85068079586723
 21
68.89931920413264
 31
0.0
100
AcDbText
 73
     2
  0
LINE
  5
1859
330
11F2
100
AcDbEntity
  8
LINE
100
AcDbLine
 10
17.10164880763443
 20
79.25
 30
0.0
 11
24.10164880763443
 21
79.25
 31
0.0
  0
LINE
  5
185A
330
11F2
100
AcDbEntity
  8
LINE
100
AcDbLine
 10
19.13534114947944
 20
74.5
 30
0.0
 11
19.60164880763443
 21
74.5
 31
0.0
  0
LINE
  5
185B
330
11F2
100
AcDbEntity
  8
LINE
100
AcDbLine
 10
19.1353411494794
 20
72.5
 30
0.0
 11
19.60164880763443
 21
72.5
 31
0.0
  0
LINE
  5
185C
330
11F2
100
AcDbEntity
  8
LINE
100
AcDbLine
 10
17.10164880763443
 20
67.75
 30
0.0
 11
24.10164880763443
 21
67.75
 31
0.0
  0
LINE
  5
185D
330
11F2
100
AcDbEntity
  8
LINE
100
AcDbLine
 10
19.60164880763443
 20
73.5
 30
0.0
 11
19.60164880763443
 21
73.5
 31
0.0
  0
LINE
  5
185E
330
11F2
100
AcDbEntity
  8
LINE
100
AcDbLine
 10
20.60164880763442
 20
73.5
 30
0.0
 11
20.60164880763442
 21
73.0
 31
0.0
  0
LINE
  5
185F
330
11F2
100
AcDbEntity
  8
LINE
100
AcDbLine
 10
19.60164880763443
 20
73.5
 30
0.0
 11
19.60164880763443
 21
73.5
 31
0.0
  0
LINE
  5
1860
330
11F2
100
AcDbEntity
  8
LINE
100
AcDbLine
 10
24.10164880763443
 20
72.0
 30
0.0
 11
24.10164880763443
 21
73.5
 31
0.0
  0
LINE
  5
1861
330
11F2
100
AcDbEntity
  8
LINE
100
AcDbLine
 10
17.10164880763443
 20
73.0
 30
0.0
 11
19.36849497855692
 21
73.00000000000001
 31
0.0
  0
LINE
  5
1862
330
11F2
100
AcDbEntity
  8
LINE
100
AcDbLine
 10
17.10164880763443
 20
73.5
 30
0.0
 11
17.10164880763443
 21
67.74999999999998
 31
0.0
  0
LINE
  5
1863
330
11F2
100
AcDbEntity
  8
LINE
100
AcDbLine
 10
24.10164880763443
 20
67.74999999999998
 30
0.0
 11
24.10164880763443
 21
73.5
 31
0.0
  0
CIRCLE
  5
1864
330
11F2
100
AcDbEntity
  8
LINE
100
AcDbCircle
 10
74.25
 20
73.5
 30
0.0
 40
4.75
  0
LINE
  5
1865
330
11F2
100
AcDbEntity
  8
LINE
100
AcDbLine
 10
63.18976429460754
 20
79.25
 30
0.0
 11
82.24999999999999
 21
79.25
 31
0.0
  0
LINE
  5
1866
330
11F2
100
AcDbEntity
  8
LINE
100
AcDbLine
 10
109.25
 20
74.5
 30
0.0
 11
109.25
 21
73.5
 31
0.0
  0
ARC
  5
1867
330
11F2
100
AcDbEntity
  8
LINE
100
AcDbCircle
 10
63.18976429460754
 20
59.25
 30
0.0
 40
20.0
100
AcDbArc
 50
90.0
 51
130.3149091747084
  0
LINE
  5
1868
330
11F2
100
AcDbEntity
  8
LINE
100
AcDbLine
 10
50.25
 20
74.5
 30
0.0
 11
51.25
 21
73.5
 31
0.0
  0
LINE
  5
1869
330
11F2
100
AcDbEntity
  8
LINE
100
AcDbLine
 10
82.75
 20
73.50000000000001
 30
0.0
 11
82.75
 21
73.50000000000003
 31
0.0
  0
LINE
  5
186A
330
11F2
100
AcDbEntity
  8
LINE
100
AcDbLine
 10
83.49999999999999
 20
74.25000000000003
 30
0.0
 11
105.4999999999999
 21
74.25000000000003
 31
0.0
  0
LINE
  5
186B
330
11F2
100
AcDbEntity
  8
LINE
100
AcDbLine
 10
106.25
 20
73.50000000000001
 30
0.0
 11
106.25
 21
73.5
 31
0.0
  0
ARC
  5
186C
330
11F2
100
AcDbEntity
  8
LINE
100
AcDbCircle
 10
83.49999999999999
 20
73.50000000000003
 30
0.0
 40
0.75
100
AcDbArc
 50
90.0
 51
180.0
  0
ARC
  5
186D
330
11F2
100
AcDbEntity
  8
LINE
100
AcDbCircle
 10
105.4999999999999
 20
73.50000000000001
 30
0.0
 40
0.75
100
AcDbArc
 50
0.0
 51
90.0
  0
ARC
  5
186E
330
11F2
100
AcDbEntity
  8
LINE
100
AcDbCircle
 10
105.4999999999999
 20
73.49999999999996
 30
0.0
 40
0.75
100
AcDbArc
 50
270.0
 51
0.0
  0
ARC
  5
186F
330
11F2
100
AcDbEntity
  8
LINE
100
AcDbCircle
 10
83.50000000000001
 20
73.49999999999998
 30
0.0
 40
0.75
100
AcDbArc
 50
180.0
 51
270.0
  0
LINE
  5
1870
330
11F2
100
AcDbEntity
  8
LINE
100
AcDbLine
 10
106.25
 20
73.49999999999996
 30
0.0
 11
106.25
 21
73.49999999999997
 31
0.0
  0
LINE
  5
1871
330
11F2
100
AcDbEntity
  8
LINE
100
AcDbLine
 10
83.50000000000001
 20
72.74999999999998
 30
0.0
 11
105.4999999999999
 21
72.74999999999993
 31
0.0
  0
LINE
  5
1872
330
11F2
100
AcDbEntity
  8
LINE
100
AcDbLine
 10
82.75000000000002
 20
73.5
 30
0.0
 11
82.75000000000002
 21
73.49999999999998
 31
0.0
  0
LINE
  5
1873
330
11F2
100
AcDbEntity
  8
LINE
100
AcDbLine
 10
109.25
 20
72.49999999999997
 30
0.0
 11
109.25
 21
73.49999999999997
 31
0.0
  0
LINE
  5
1874
330
11F2
100
AcDbEntity
  8
LINE
100
AcDbLine
 10
63.1897642946075
 20
67.75000000000007
 30
0.0
 11
82.24999999999999
 21
67.75000000000002
 31
0.0
  0
ARC
  5
1875
330
11F2
100
AcDbEntity
  8
LINE
100
AcDbCircle
 10
63.18976429460754
 20
87.74999999999998
 30
0.0
 40
20.0
100
AcDbArc
 50
229.6850908252909
 51
270.0
  0
LINE
  5
1876
330
11F2
100
AcDbEntity
  8
LINE
100
AcDbLine
 10
50.24999999999998
 20
72.50000000000001
 30
0.0
 11
51.25
 21
73.5
 31
0.0
  0
LINE
  5
1877
330
11F2
100
AcDbEntity
  8
CENTER
100
AcDbLine
 10
49.81447804305663
 20
73.5
 30
0.0
 11
51.25
 21
73.5
 31
0.0
  0
DIMENSION
  5
1878
330
11F2
100
AcDbEntity
  8
DIMENSION
100
AcDbDimension
  2
*D127
 10
45.75
 20
72.50000000000001
 30
0.0
 11
44.49999999999999
 21
73.50000000000003
 31
0.0
  3
ISO-25
100
AcDbAlignedDimension
 13
50.25
 23
74.5
 33
0.0
 14
50.25
 24
72.50000000000001
 34
0.0
 50
90.0
100
AcDbRotatedDimension
  0
LINE
  5
1879
330
11F2
100
AcDbEntity
  8
DIMENSION
 62
     3
100
AcDbLine
 10
50.25
 20
74.5
 30
0.0
 11
42.05622556121952
 21
82.69377443878045
 31
0.0
  0
LINE
  5
187A
330
11F2
100
AcDbEntity
  8
DIMENSION
 62
     3
100
AcDbLine
 10
50.24999999999998
 20
72.50000000000001
 30
0.0
 11
42.05622556121936
 21
64.30622556121964
 31
0.0
  0
ARC
  5
187B
330
11F2
100
AcDbEntity
  8
DIMENSION
 62
     3
100
AcDbCircle
 10
51.25
 20
73.5
 30
0.0
 40
11.50196050072245
100
AcDbArc
 50
139.9829627148529
 51
220.0170372851458
  0
INSERT
  5
187C
330
11F2
100
AcDbEntity
  8
DIMENSION
 62
     3
100
AcDbBlockReference
  2
_OPEN30
 10
43.11688573299932
 20
81.63311426700065
 30
0.0
 50
47.49148135742673
  0
INSERT
  5
187D
330
11F2
100
AcDbEntity
  8
DIMENSION
 62
     3
100
AcDbBlockReference
  2
_OPEN30
 10
43.1168857329992
 20
65.36688573299946
 30
0.0
 50
312.5085186425727
  0
INSERT
  5
187E
330
11F2
100
AcDbEntity
  8
0
100
AcDbBlockReference
  2
*U174
 10
0.0
 20
0.0
 30
0.0
  0
INSERT
  5
187F
330
11F2
100
AcDbEntity
  8
DIMENSION
100
AcDbBlockReference
  2
_OPEN30
 10
57.57654078332056
 20
68.55386179950937
 30
0.0
 50
71.12175098793646
1001
ACAD
1000
DSTYLE
1002
{
1070
   147
1040
0.5
1070
    77
1070
     1
1002
}
  0
POLYLINE
  5
1880
330
11F2
100
AcDbEntity
  8
DIMENSION
100
AcDb2dPolyline
 66
     1
 10
0.0
 20
0.0
 30
0.0
1001
ACAD
1000
DSTYLE
1002
{
1070
   147
1040
0.5
1070
    77
1070
     1
1002
}
  0
VERTEX
  5
1881
330
1880
100
AcDbEntity
  8
DIMENSION
100
AcDbVertex
100
AcDb2dVertex
 10
57.25298254739101
 20
67.60765354126906
 30
0.0
  0
VERTEX
  5
1882
330
1880
100
AcDbEntity
  8
DIMENSION
100
AcDbVertex
100
AcDb2dVertex
 10
55.75
 20
63.21235668150393
 30
0.0
  0
VERTEX
  5
1883
330
1880
100
AcDbEntity
  8
DIMENSION
100
AcDbVertex
100
AcDb2dVertex
 10
51.02833602260372
 20
63.21235668150393
 30
0.0
  0
SEQEND
  5
1884
330
1880
100
AcDbEntity
  8
DIMENSION
  0
TEXT
  5
1885
330
11F2
100
AcDbEntity
  8
DIMENSION
100
AcDbText
 10
51.75
 20
63.9623566815039
 30
0.0
 40
1.5
  1
R20
  7
GOTHIC
 11
51.75
 21
64.71235668150391
 31
0.0
100
AcDbText
 73
     2
  0
DIMENSION
  5
1886
330
11F2
100
AcDbEntity
  8
DIMENSION
100
AcDbDimension
  2
*D133
 10
12.75
 20
67.75
 30
0.0
 11
11.49999999999998
 21
73.5
 31
0.0
  3
ISO-25
100
AcDbAlignedDimension
 13
17.10164880763443
 23
79.25000000000001
 33
0.0
 14
17.10164880763443
 24
67.75
 34
0.0
 50
90.0
100
AcDbRotatedDimension
  0
LINE
  5
1887
330
11F2
100
AcDbEntity
  8
CENTER
100
AcDbLine
 10
109.25
 20
73.49999999999998
 30
0.0
 11
110.7953604072249
 21
73.49999999999998
 31
0.0
  0
LINE
  5
1888
330
11F2
100
AcDbEntity
  8
LINE
100
AcDbLine
 10
106.25
 20
73.49999999999993
 30
0.0
 11
109.25
 21
73.49999999999997
 31
0.0
  0
DIMENSION
  5
1889
330
11F2
100
AcDbEntity
  8
DIMENSION
100
AcDbDimension
  2
*D135
 10
74.25
 20
87.0
 30
0.0
 11
62.25
 21
88.25000000000001
 31
0.0
  3
ISO-25
100
AcDbAlignedDimension
 13
50.25
 23
74.5
 33
0.0
 14
74.25
 24
80.94496302382593
 34
0.0
100
AcDbRotatedDimension
1001
ACAD
1000
DSTYLE
1002
{
1070
    75
1070
     0
1002
}
  0
TEXT
  5
188A
330
11F2
100
AcDbEntity
  8
TEXT
100
AcDbText
 10
79.9422095885513
 20
78.20226009489056
 30
0.0
 40
1.5
  1
Ｙ
 50
135.0
  7
GOTHIC
 72
     1
 11
78.91690475583081
 21
78.16690475583122
 31
0.0
100
AcDbText
 73
     2
  0
LINE
  5
188B
330
11F2
100
AcDbEntity
  8
LINE
100
AcDbLine
 10
64.25
 20
72.99999999999998
 30
0.0
 11
64.25
 21
67.75000000000007
 31
0.0
  0
LINE
  5
188C
330
11F2
100
AcDbEntity
  8
LINE
100
AcDbLine
 10
64.25
 20
73.99999999999998
 30
0.0
 11
64.25
 21
79.25
 31
0.0
  0
LINE
  5
188D
330
11F2
100
AcDbEntity
  8
LINE
100
AcDbLine
 10
63.75
 20
72.99999999999998
 30
0.0
 11
63.75
 21
67.75000000000007
 31
0.0
  0
LINE
  5
188E
330
11F2
100
AcDbEntity
  8
LINE
100
AcDbLine
 10
63.75
 20
73.99999999999998
 30
0.0
 11
63.75
 21
79.25
 31
0.0
  0
DIMENSION
  5
188F
330
11F2
100
AcDbEntity
  8
DIMENSION
100
AcDbDimension
  2
*D139
 10
63.75
 20
82.44440749150392
 30
0.0
 11
57.0
 21
83.69440749150392
 31
0.0
  3
ISO-25
100
AcDbAlignedDimension
 13
50.25
 23
74.5
 33
0.0
 14
63.75
 24
79.25
 34
0.0
100
AcDbRotatedDimension
1001
ACAD
1000
DSTYLE
1002
{
1070
    75
1070
     1
1002
}
  0
DIMENSION
  5
1890
330
11F2
100
AcDbEntity
  8
DIMENSION
100
AcDbDimension
  2
*D141
 10
74.25
 20
82.5
 30
0.0
 11
69.0
 21
83.75
 31
0.0
  3
ISO-25
100
AcDbAlignedDimension
 13
63.75
 23
79.25
 33
0.0
 14
74.25
 24
80.94496302382593
 34
0.0
100
AcDbRotatedDimension
1001
ACAD
1000
DSTYLE
1002
{
1070
    76
1070
     1
1070
    75
1070
     1
1002
}
  0
LINE
  5
1891
330
11F2
100
AcDbEntity
  8
LINE
100
AcDbLine
 10
19.60164880763443
 20
73.5
 30
0.0
 11
19.60164880763443
 21
67.75
 31
0.0
  0
LINE
  5
1892
330
11F2
100
AcDbEntity
  8
LINE
100
AcDbLine
 10
19.60164880763443
 20
73.5
 30
0.0
 11
19.60164880763443
 21
79.25
 31
0.0
  0
LINE
  5
1893
330
11F2
100
AcDbEntity
  8
LINE
100
AcDbLine
 10
17.10164880763443
 20
78.86126730127388
 30
0.0
 11
19.60164880763443
 21
73.5
 31
0.0
  0
LINE
  5
1894
330
11F2
100
AcDbEntity
  8
LINE
100
AcDbLine
 10
19.60164880763443
 20
73.5
 30
0.0
 11
17.10164880763443
 21
68.1387326987261
 31
0.0
  0
LINE
  5
1895
330
11F2
100
AcDbEntity
  8
LINE
100
AcDbLine
 10
19.60164880763443
 20
74.0
 30
0.0
 11
24.10164880763443
 21
74.00000000000003
 31
0.0
  0
LINE
  5
1896
330
11F2
100
AcDbEntity
  8
LINE
100
AcDbLine
 10
19.60164880763443
 20
73.0
 30
0.0
 11
24.10164880763443
 21
72.99999999999998
 31
0.0
  0
DIMENSION
  5
1897
330
11F2
100
AcDbEntity
  8
DIMENSION
100
AcDbDimension
  2
*D143
 10
19.60164880763443
 20
63.21235668150393
 30
0.0
 11
23.97866653124731
 21
63.21708927604646
 31
0.0
 70
   128
  3
ISO-25
100
AcDbAlignedDimension
 13
17.10164880763443
 23
67.75
 33
0.0
 14
19.60164880763443
 24
67.75
 34
0.0
100
AcDbRotatedDimension
  0
DIMENSION
  5
1898
330
11F2
100
AcDbEntity
  8
DIMENSION
100
AcDbDimension
  2
*D177
 10
19.60164880763443
 20
73.5
 30
0.0
 11
16.37284250237054
 21
88.06420405783148
 31
0.0
 70
    34
  3
ISO-25
100
AcDb2LineAngularDimension
 13
19.60164880763443
 23
73.5
 33
0.0
 14
19.60164880763443
 24
79.25
 34
0.0
 15
17.10164880763443
 25
78.86126730127388
 35
0.0
 16
18.16424131496134
 26
83.31309997440888
 36
0.0
1001
ACAD
1000
DSTYLE
1002
{
1070
   271
1070
     0
1002
}
  0
LINE
  5
1899
330
11F2
100
AcDbEntity
  8
LINE
100
AcDbLine
 10
82.24999999999999
 20
79.25
 30
0.0
 11
104.9478957841736
 21
77.07679721215351
 31
0.0
  0
LINE
  5
189A
330
11F2
100
AcDbEntity
  8
LINE
100
AcDbLine
 10
106.4056838833058
 20
76.5316543690672
 30
0.0
 11
109.25
 21
74.5
 31
0.0
  0
ARC
  5
189B
330
11F2
100
AcDbEntity
  8
LINE
100
AcDbCircle
 10
104.6619693021485
 20
74.09045395544694
 30
0.0
 40
3.0
100
AcDbArc
 50
54.46232220802638
 51
84.53090502988819
  0
LINE
  5
189C
330
11F2
100
AcDbEntity
  8
LINE
100
AcDbLine
 10
103.75
 20
77.19148936170205
 30
0.0
 11
107.8278419416529
 21
75.51582718453357
 31
0.0
  0
LINE
  5
189D
330
11F2
100
AcDbEntity
  8
LINE
100
AcDbLine
 10
82.24999999999999
 20
67.75000000000002
 30
0.0
 11
104.9478957841736
 21
69.92320278784649
 31
0.0
  0
LINE
  5
189E
330
11F2
100
AcDbEntity
  8
LINE
100
AcDbLine
 10
106.4056838833058
 20
70.46834563093286
 30
0.0
 11
109.25
 21
72.50000000000003
 31
0.0
  0
ARC
  5
189F
330
11F2
100
AcDbEntity
  8
LINE
100
AcDbCircle
 10
104.6619693021485
 20
72.90954604455309
 30
0.0
 40
3.0
100
AcDbArc
 50
275.4690949701118
 51
305.5376777919736
  0
LINE
  5
18A0
330
11F2
100
AcDbEntity
  8
LINE
100
AcDbLine
 10
103.75
 20
69.80851063829796
 30
0.0
 11
107.8278419416529
 21
71.48417281546644
 31
0.0
  0
LINE
  5
18A1
330
11F2
100
AcDbEntity
  8
CENTER
100
AcDbLine
 10
62.05474627913746
 20
43.5
 30
0.0
 11
67.32630878793688
 21
43.5
 31
0.0
  0
LINE
  5
18A2
330
11F2
100
AcDbEntity
  8
LINE
100
AcDbLine
 10
108.4820508075688
 20
47.0
 30
0.0
 11
64.25000000000001
 21
47.0
 31
0.0
  0
LINE
  5
18A3
330
11F2
100
AcDbEntity
  8
LINE
100
AcDbLine
 10
106.75
 20
46.0
 30
0.0
 11
105.017949192431
 21
46.99999999999998
 31
0.0
  0
LINE
  5
18A4
330
11F2
100
AcDbEntity
  8
LINE
100
AcDbLine
 10
106.75
 20
46.0
 30
0.0
 11
108.4820508075688
 21
46.99999999999998
 31
0.0
  0
LINE
  5
18A5
330
11F2
100
AcDbEntity
  8
LINE
100
AcDbLine
 10
106.75
 20
41.0
 30
0.0
 11
108.4820508075688
 21
40.0
 31
0.0
  0
LINE
  5
18A6
330
11F2
100
AcDbEntity
  8
LINE
100
AcDbLine
 10
106.75
 20
41.0
 30
0.0
 11
105.017949192431
 21
40.0
 31
0.0
  0
LINE
  5
18A7
330
11F2
100
AcDbEntity
  8
LINE
100
AcDbLine
 10
109.25
 20
43.5
 30
0.0
 11
109.25
 21
46.5
 31
0.0
  0
LINE
  5
18A8
330
11F2
100
AcDbEntity
  8
LINE
100
AcDbLine
 10
109.25
 20
40.49999999999999
 30
0.0
 11
109.25
 21
43.5
 31
0.0
  0
ARC
  5
18A9
330
11F2
100
AcDbEntity
  8
LINE
100
AcDbCircle
 10
108.25
 20
44.99999999999999
 30
0.0
 40
2.0
100
AcDbArc
 50
146.6742497874554
 51
147.5070396535097
  0
LINE
  5
18AA
330
11F2
100
AcDbEntity
  8
LINE
100
AcDbLine
 10
107.9061906450033
 20
40.0
 30
0.0
 11
107.9665023920054
 21
40.0
 31
0.0
  0
LINE
  5
18AB
330
11F2
100
AcDbEntity
  8
LINE
100
AcDbLine
 10
74.24999999999998
 20
43.5
 30
0.0
 11
81.17369121206312
 21
43.5
 31
0.0
  0
LINE
  5
18AC
330
11F2
100
AcDbEntity
  8
LINE
100
AcDbLine
 10
74.24999999999998
 20
43.5
 30
0.0
 11
67.32630878793688
 21
43.5
 31
0.0
  0
LINE
  5
18AD
330
11F2
100
AcDbEntity
  8
LINE
100
AcDbLine
 10
50.25
 20
42.49999999999999
 30
0.0
 11
50.25
 21
42.07599999999998
 31
0.0
  0
LINE
  5
18AE
330
11F2
100
AcDbEntity
  8
LINE
100
AcDbLine
 10
63.75
 20
42.7
 30
0.0
 11
63.75
 21
42.7
 31
0.0
  0
LINE
  5
18AF
330
11F2
100
AcDbEntity
  8
LINE
100
AcDbLine
 10
59.12300535331742
 20
39.99999999999999
 30
0.0
 11
108.4820508075688
 21
40.0
 31
0.0
  0
LINE
  5
18B0
330
11F2
100
AcDbEntity
  8
CENTER
100
AcDbLine
 10
74.25
 20
48.75
 30
0.0
 11
74.25
 21
38.25
 31
0.0
  0
LINE
  5
18B1
330
11F2
100
AcDbEntity
  8
LINE
100
AcDbLine
 10
67.32630878793688
 20
43.5
 30
0.0
 11
67.32630878793688
 21
39.99999999999999
 31
0.0
  0
LINE
  5
18B2
330
11F2
100
AcDbEntity
  8
LINE
100
AcDbLine
 10
67.99000798722554
 20
43.5
 30
0.0
 11
67.99000798722554
 21
39.99999999999999
 31
0.0
  0
LINE
  5
18B3
330
11F2
100
AcDbEntity
  8
LINE
100
AcDbLine
 10
80.50999201277445
 20
47.0
 30
0.0
 11
80.50999201277445
 21
43.5
 31
0.0
  0
LINE
  5
18B4
330
11F2
100
AcDbEntity
  8
LINE
100
AcDbLine
 10
81.17369121206312
 20
47.0
 30
0.0
 11
81.17369121206312
 21
43.5
 31
0.0
  0
ARC
  5
18B5
330
11F2
100
AcDbEntity
  8
LINE
100
AcDbCircle
 10
107.8037936351244
 20
45.11851994216582
 30
0.0
 40
2.0
100
AcDbArc
 50
43.68871715068513
 51
70.17620826536262
  0
ARC
  5
18B6
330
11F2
100
AcDbEntity
  8
LINE
100
AcDbCircle
 10
107.8037936351244
 20
41.88148005783417
 30
0.0
 40
2.0
100
AcDbArc
 50
289.8237917346373
 51
316.3112828493148
  0
LINE
  5
18B7
330
11F2
100
AcDbEntity
  8
CENTER
100
AcDbLine
 10
81.17369121206312
 20
43.5
 30
0.0
 11
110.4820350336533
 21
43.5
 31
0.0
  0
LINE
  5
18B8
330
11F2
100
AcDbEntity
  8
LINE
100
AcDbLine
 10
63.75000000000002
 20
46.5
 30
0.0
 11
63.75
 21
42.49999999999996
 31
0.0
  0
DIMENSION
  5
18B9
330
11F2
100
AcDbEntity
  8
DIMENSION
100
AcDbDimension
  2
*D159
 10
117.7499999999999
 20
40.0
 30
0.0
 11
115.8591370558374
 21
43.5
 31
0.0
  3
ISO-25
100
AcDbAlignedDimension
 13
108.4820508075688
 23
47.0
 33
0.0
 14
108.4820508075688
 24
40.0
 34
0.0
 50
90.0
100
AcDbRotatedDimension
1001
ACAD
1000
DSTYLE
1002
{
1070
   146
1040
0.8
1070
    47
1040
0.0
1070
    48
1040
0.1
1070
   147
1040
0.5
1070
    72
1070
     0
1070
    71
1070
     1
1002
}
  0
ARC
  5
18BA
330
11F2
100
AcDbEntity
  8
LINE
100
AcDbCircle
 10
59.12300535331742
 20
60.0
 30
0.0
 40
20.0
100
AcDbArc
 50
243.6629844268061
 51
270.0
  0
LINE
  5
18BB
330
11F2
100
AcDbEntity
  8
LINE
100
AcDbLine
 10
50.25
 20
42.49999999999999
 30
0.0
 11
63.75
 21
42.49999999999999
 31
0.0
  0
LINE
  5
18BC
330
11F2
100
AcDbEntity
  8
LINE
100
AcDbLine
 10
63.75000000000002
 20
46.5
 30
0.0
 11
64.25000000000001
 21
47.0
 31
0.0
  0
DIMENSION
  5
18BD
330
11F2
100
AcDbEntity
  8
DIMENSION
100
AcDbDimension
  2
*D163
 10
45.74999999999998
 20
40.0
 30
0.0
 11
45.75416188126609
 21
46.39951589634262
 31
0.0
 70
   128
  3
ISO-25
100
AcDbAlignedDimension
 13
50.25
 23
42.49999999999999
 33
0.0
 14
59.12300535331742
 24
39.99999999999999
 34
0.0
 50
90.0
100
AcDbRotatedDimension
  0
DIMENSION
  5
18BE
330
11F2
100
AcDbEntity
  8
DIMENSION
100
AcDbDimension
  2
*D165
 10
74.25
 20
50.25
 30
0.0
 11
69.00000000000002
 21
51.5
 31
0.0
  3
ISO-25
100
AcDbAlignedDimension
 13
63.75000000000002
 23
46.5
 33
0.0
 14
74.25
 24
48.75
 34
0.0
100
AcDbRotatedDimension
  0
INSERT
  5
18BF
330
11F2
100
AcDbEntity
  8
DIMENSION
100
AcDbBlockReference
  2
_OPEN30
 10
64.014639518303
 20
46.76463951830296
 30
0.0
 50
317.2060141152365
1001
ACAD
1000
DSTYLE
1002
{
1070
   147
1040
0.5
1070
    77
1070
     1
1002
}
  0
POLYLINE
  5
18C0
330
11F2
100
AcDbEntity
  8
DIMENSION
100
AcDb2dPolyline
 66
     1
 10
0.0
 20
0.0
 30
0.0
1001
ACAD
1000
DSTYLE
1002
{
1070
   147
1040
0.5
1070
    77
1070
     1
1002
}
  0
VERTEX
  5
18C1
330
18C0
100
AcDbEntity
  8
DIMENSION
100
AcDbVertex
100
AcDb2dVertex
 10
63.28083833952996
 20
47.44400380205013
 30
0.0
  0
VERTEX
  5
18C2
330
18C0
100
AcDbEntity
  8
DIMENSION
100
AcDbVertex
100
AcDb2dVertex
 10
60.24999999999998
 20
50.25
 30
0.0
  0
VERTEX
  5
18C3
330
18C0
100
AcDbEntity
  8
DIMENSION
100
AcDbVertex
100
AcDb2dVertex
 10
54.53141945000377
 20
50.25
 30
0.0
  0
SEQEND
  5
18C4
330
18C0
100
AcDbEntity
  8
DIMENSION
  0
TEXT
  5
18C5
330
11F2
100
AcDbEntity
  8
DIMENSION
100
AcDbText
 10
54.8303478532707
 20
50.7529200835508
 30
0.0
 40
1.5
  1
C0.5
  7
GOTHIC
 11
54.8303478532707
 21
51.5029200835508
 31
0.0
100
AcDbText
 73
     2
  0
DIMENSION
  5
18C6
330
11F2
100
AcDbEntity
  8
DIMENSION
100
AcDbDimension
  2
*D167
 10
75.22827375313695
 20
75.30152170786898
 30
0.0
 11
66.00000000000001
 21
63.00000000000002
 31
0.0
 70
   131
  3
ISO-25
100
AcDbDiametricDimension
 15
73.27172624686298
 25
71.69847829213094
 35
0.0
 40
0.0
1001
ACAD
1000
DSTYLE
1002
{
1070
     3
1000
φ<>
1070
   288
1070
     1
1002
}
  0
VIEWPORT
  5
18C9
330
11EE
100
AcDbEntity
 67
     1
  8
0
100
AcDbViewport
 10
145.3197631835936
 20
101.8222458362579
 30
0.0
 40
391.2734030671862
 41
222.174172088623
 68
     1
 69
     1
1001
ACAD
1000
MVIEW
1002
{
1070
    16
1010
0.0
1020
0.0
1030
0.0
1010
0.0
1020
0.0
1030
1.0
1040
0.0
1040
222.174172088623
1040
145.3197631835936
1040
101.8222458362579
1040
50.0
1040
0.0
1040
0.0
1070
     0
1070
  1000
1070
     1
1070
     1
1070
     0
1070
     0
1070
     0
1070
     0
1040
0.0
1040
0.0
1040
0.0
1040
10.0
1040
10.0
1040
10.0
1040
10.0
1070
     0
1002
{
1002
}
1002
}
  0
ENDSEC
  0
SECTION
  2
OBJECTS
  0
DICTIONARY
  5
11E0
330
0
100
AcDbDictionary
  3
ACAD_GROUP
350
11E1
  3
ACAD_LAYOUT
350
11ED
  3
ACAD_MLINESTYLE
350
11EA
  3
ACAD_PLOTSETTINGS
350
11EC
1001
ACAD
1000
TREAT_AS_HARD
1070
     0
  0
DICTIONARY
  5
18CE
330
11F2
100
AcDbDictionary
  3
ACAD_LAYOUTSELFREF
350
18CF
  0
DICTIONARY
  5
18CC
330
11EE
100
AcDbDictionary
  3
ACAD_LAYOUTSELFREF
350
18CD
  0
DICTIONARY
  5
11E1
102
{ACAD_REACTORS
330
11E0
102
}
330
11E0
100
AcDbDictionary
1001
ACAD
1000
TREAT_AS_HARD
1070
     0
  0
DICTIONARY
  5
11ED
102
{ACAD_REACTORS
330
11E0
102
}
330
11E0
100
AcDbDictionary
1001
ACAD
1000
TREAT_AS_HARD
1070
     0
  0
DICTIONARY
  5
11EA
102
{ACAD_REACTORS
330
11E0
102
}
330
11E0
100
AcDbDictionary
  3
STANDARD
350
11EB
1001
ACAD
1000
TREAT_AS_HARD
1070
     0
  0
DICTIONARY
  5
11EC
102
{ACAD_REACTORS
330
11E0
102
}
330
11E0
100
AcDbDictionary
1001
ACAD
1000
TREAT_AS_HARD
1070
     0
  0
XRECORD
  5
18CF
102
{ACAD_REACTORS
330
18CE
102
}
330
18CE
100
AcDbXrecord
340
11F2
  0
XRECORD
  5
18CD
102
{ACAD_REACTORS
330
18CC
102
}
330
18CC
100
AcDbXrecord
340
11EE
  0
MLINESTYLE
  5
11EB
102
{ACAD_REACTORS
330
11EA
102
}
330
11EA
100
AcDbMlineStyle
  2
STANDARD
 70
     0
  3

 62
   256
 51
90.0
 52
90.0
 71
     2
 49
0.5
 62
   256
  6
BYLAYER
 49
-0.5
 62
   256
  6
BYLAYER
  0
ENDSEC
  0
EOF
