  0
SECTION
  2
HEADER
  9
$ACADVER
  1
AC1012
  9
$DWGCODEPAGE
  3
dos932
  9
$INSBASE
 10
0.0
 20
0.0
 30
0.0
  9
$EXTMIN
 10
9.093178151749498
 20
29.99748257919853
 30
-0.0015258207003583
  9
$EXTMAX
 10
120.7582171713679
 20
90.7518770589399
 30
0.0000000349246037
  9
$LIMMIN
 10
0.0
 20
0.0
  9
$LIMMAX
 10
148.5
 20
105.0
  9
$ORTHOMODE
 70
     0
  9
$REGENMODE
 70
     1
  9
$FILLMODE
 70
     1
  9
$QTEXTMODE
 70
     0
  9
$MIRRTEXT
 70
     0
  9
$DRAGMODE
 70
     2
  9
$LTSCALE
 40
0.25
  9
$OSMODE
 70
    37
  9
$ATTMODE
 70
     1
  9
$TEXTSIZE
 40
1.5
  9
$TRACEWID
 40
1.0
  9
$TEXTSTYLE
  7
GOTHIC
  9
$CLAYER
  8
0
  9
$CELTYPE
  6
BYLAYER
  9
$CECOLOR
 62
   256
  9
$CELTSCALE
 40
1.0
  9
$DELOBJ
 70
     1
  9
$DISPSILH
 70
     0
  9
$DIMSCALE
 40
1.0
  9
$DIMASZ
 40
1.0
  9
$DIMEXO
 40
0.0
  9
$DIMDLI
 40
1.5
  9
$DIMRND
 40
0.0
  9
$DIMDLE
 40
0.0
  9
$DIMEXE
 40
1.5
  9
$DIMTP
 40
0.0
  9
$DIMTM
 40
0.0
  9
$DIMTXT
 40
1.5
  9
$DIMCEN
 40
0.0
  9
$DIMTSZ
 40
0.0
  9
$DIMTOL
 70
     0
  9
$DIMLIM
 70
     0
  9
$DIMTIH
 70
     0
  9
$DIMTOH
 70
     0
  9
$DIMSE1
 70
     0
  9
$DIMSE2
 70
     0
  9
$DIMTAD
 70
     1
  9
$DIMZIN
 70
     8
  9
$DIMBLK
  1
OPEN30
  9
$DIMASO
 70
     1
  9
$DIMSHO
 70
     1
  9
$DIMPOST
  1

  9
$DIMAPOST
  1

  9
$DIMALT
 70
     0
  9
$DIMALTD
 70
     3
  9
$DIMALTF
 40
0.03937007874016
  9
$DIMLFAC
 40
1.0
  9
$DIMTOFL
 70
     1
  9
$DIMTVP
 40
0.0
  9
$DIMTIX
 70
     0
  9
$DIMSOXD
 70
     0
  9
$DIMSAH
 70
     0
  9
$DIMBLK1
  1

  9
$DIMBLK2
  1

  9
$DIMSTYLE
  2
VESSEL_ENGINEERING_ORIGIN0
  9
$DIMCLRD
 70
   256
  9
$DIMCLRE
 70
   256
  9
$DIMCLRT
 70
   256
  9
$DIMTFAC
 40
1.0
  9
$DIMGAP
 40
0.5
  9
$DIMJUST
 70
     0
  9
$DIMSD1
 70
     0
  9
$DIMSD2
 70
     0
  9
$DIMTOLJ
 70
     1
  9
$DIMTZIN
 70
     0
  9
$DIMALTZ
 70
     0
  9
$DIMALTTZ
 70
     0
  9
$DIMFIT
 70
     3
  9
$DIMUPT
 70
     0
  9
$DIMUNIT
 70
     2
  9
$DIMDEC
 70
     4
  9
$DIMTDEC
 70
     4
  9
$DIMALTU
 70
     2
  9
$DIMALTTD
 70
     2
  9
$DIMTXSTY
  7
STANDARD
  9
$DIMAUNIT
 70
     0
  9
$LUNITS
 70
     2
  9
$LUPREC
 70
     4
  9
$SKETCHINC
 40
1.0
  9
$FILLETRAD
 40
0.0
  9
$AUNITS
 70
     0
  9
$AUPREC
 70
     0
  9
$MENU
  1
.
  9
$ELEVATION
 40
0.0
  9
$PELEVATION
 40
0.0
  9
$THICKNESS
 40
0.0
  9
$LIMCHECK
 70
     0
  9
$BLIPMODE
 70
     1
  9
$CHAMFERA
 40
0.0
  9
$CHAMFERB
 40
0.0
  9
$CHAMFERC
 40
0.0
  9
$CHAMFERD
 40
0.0
  9
$SKPOLY
 70
     0
  9
$TDCREATE
 40
2452943.646856192
  9
$TDUPDATE
 40
2453515.483136690
  9
$TDINDWG
 40
0.3416834722
  9
$TDUSRTIMER
 40
0.3416834722
  9
$USRTIMER
 70
     1
  9
$ANGBASE
 50
0.0
  9
$ANGDIR
 70
     0
  9
$PDMODE
 70
     0
  9
$PDSIZE
 40
0.0
  9
$PLINEWID
 40
0.0
  9
$COORDS
 70
     1
  9
$SPLFRAME
 70
     0
  9
$SPLINETYPE
 70
     6
  9
$SPLINESEGS
 70
     8
  9
$ATTDIA
 70
     0
  9
$ATTREQ
 70
     1
  9
$HANDLING
 70
-16383
  9
$HANDSEED
  5
40F2
  9
$SURFTAB1
 70
     6
  9
$SURFTAB2
 70
     6
  9
$SURFTYPE
 70
     6
  9
$SURFU
 70
     6
  9
$SURFV
 70
     6
  9
$UCSNAME
  2

  9
$UCSORG
 10
0.0
 20
0.0
 30
0.0
  9
$UCSXDIR
 10
1.0
 20
0.0
 30
0.0
  9
$UCSYDIR
 10
0.0
 20
1.0
 30
0.0
  9
$PUCSNAME
  2

  9
$PUCSORG
 10
0.0
 20
0.0
 30
0.0
  9
$PUCSXDIR
 10
1.0
 20
0.0
 30
0.0
  9
$PUCSYDIR
 10
0.0
 20
1.0
 30
0.0
  9
$USERI1
 70
     0
  9
$USERI2
 70
     0
  9
$USERI3
 70
     0
  9
$USERI4
 70
     0
  9
$USERI5
 70
     0
  9
$USERR1
 40
0.0
  9
$USERR2
 40
0.0
  9
$USERR3
 40
0.0
  9
$USERR4
 40
0.0
  9
$USERR5
 40
0.0
  9
$WORLDVIEW
 70
     1
  9
$SHADEDGE
 70
     3
  9
$SHADEDIF
 70
    70
  9
$TILEMODE
 70
     1
  9
$MAXACTVP
 70
    64
  9
$PINSBASE
 10
0.0
 20
0.0
 30
0.0
  9
$PLIMCHECK
 70
     0
  9
$PEXTMIN
 10
1.000000000000000E+20
 20
1.000000000000000E+20
 30
1.000000000000000E+20
  9
$PEXTMAX
 10
-1.000000000000000E+20
 20
-1.000000000000000E+20
 30
-1.000000000000000E+20
  9
$PLIMMIN
 10
-3.17498779296875
 20
-3.174999952316283
  9
$PLIMMAX
 10
293.8145141601562
 20
206.819491624832
  9
$UNITMODE
 70
     0
  9
$VISRETAIN
 70
     1
  9
$PLINEGEN
 70
     0
  9
$PSLTSCALE
 70
     0
  9
$TREEDEPTH
 70
  3020
  9
$PICKSTYLE
 70
     3
  9
$CMLSTYLE
  2
STANDARD
  9
$CMLJUST
 70
     0
  9
$CMLSCALE
 40
1.0
  9
$SAVEIMAGES
 70
     1
  0
ENDSEC
  0
SECTION
  2
CLASSES
  0
CLASS
  1
ACDBDICTIONARYWDFLT
  2
AcDbDictionaryWithDefault
  3
AutoCAD 2000
 90
    32768
280
     0
281
     0
  0
CLASS
  1
ACDBPLACEHOLDER
  2
AcDbPlaceHolder
  3
AutoCAD 2000
 90
    32768
280
     0
281
     0
  0
CLASS
  1
LAYOUT
  2
AcDbLayout
  3
AutoCAD 2000
 90
    32768
280
     0
281
     0
  0
CLASS
  1
DICTIONARYVAR
  2
AcDbDictionaryVar
  3
AutoCAD 2000
 90
    32768
280
     0
281
     0
  0
CLASS
  1
LONG_TRANSACTION
  2
AcDbLongTransaction
  3
AutoCAD 2000
 90
    32768
280
     0
281
     0
  0
CLASS
  1
LWPOLYLINE
  2
AcDbPolyline
  3
AutoCAD 2000
 90
    32768
280
     0
281
     1
  0
CLASS
  1
HATCH
  2
AcDbHatch
  3
AutoCAD 2000
 90
    32768
280
     0
281
     1
  0
CLASS
  1
XRECORD
  2
AcDbXrecord
  3
AutoCAD 2000
 90
    32768
280
     0
281
     0
  0
CLASS
  1
LONG_TRANSACTION
  2
AcDbLongTransaction
  3
AutoCAD 2000
 90
    32768
280
     0
281
     0
  0
CLASS
  1
LWPOLYLINE
  2
AcDbPolyline
  3
AutoCAD 2000
 90
    32768
280
     0
281
     1
  0
CLASS
  1
HATCH
  2
AcDbHatch
  3
AutoCAD 2000
 90
    32768
280
     0
281
     1
  0
CLASS
  1
XRECORD
  2
AcDbXrecord
  3
AutoCAD 2000
 90
    32768
280
     0
281
     0
  0
ENDSEC
  0
SECTION
  2
TABLES
  0
TABLE
  2
VPORT
  5
3280
330
0
100
AcDbSymbolTable
 70
     2
  0
VPORT
  5
40EF
330
3280
100
AcDbSymbolTableRecord
100
AcDbViewportTableRecord
  2
*ACTIVE
 70
     0
 10
0.0
 20
0.0
 11
1.0
 21
1.0
 12
64.92569766155873
 22
60.37467981906921
 13
0.0
 23
0.0
 14
1.5
 24
1.5
 15
1.5
 25
1.5
 16
0.0
 26
0.0
 36
1.0
 17
0.0
 27
0.0
 37
0.0
 40
74.31688016804303
 41
1.510025062656641
 42
50.0
 43
0.0
 44
0.0
 50
0.0
 51
0.0
 71
     0
 72
 20000
 73
     1
 74
     3
 75
     0
 76
     0
 77
     0
 78
     0
  0
ENDTAB
  0
TABLE
  2
LTYPE
  5
327D
330
0
100
AcDbSymbolTable
 70
     2
  0
LTYPE
  5
328B
330
327D
100
AcDbSymbolTableRecord
100
AcDbLinetypeTableRecord
  2
BYBLOCK
 70
     0
  3

 72
    65
 73
     0
 40
0.0
  0
LTYPE
  5
328C
330
327D
100
AcDbSymbolTableRecord
100
AcDbLinetypeTableRecord
  2
BYLAYER
 70
     0
  3

 72
    65
 73
     0
 40
0.0
  0
LTYPE
  5
328D
330
327D
100
AcDbSymbolTableRecord
100
AcDbLinetypeTableRecord
  2
CONTINUOUS
 70
     0
  3
Solid line
 72
    65
 73
     0
 40
0.0
  0
LTYPE
  5
329C
330
327D
100
AcDbSymbolTableRecord
100
AcDbLinetypeTableRecord
  2
CENTER2
 70
     0
  3
Center (.5x) ___ _ ___ _ ___ _ ___ _ ___ _ ___
 72
    65
 73
     4
 40
28.57499999999999
 49
19.05
 74
     0
 49
-3.174999999999998
 74
     0
 49
3.174999999999998
 74
     0
 49
-3.174999999999998
 74
     0
  0
ENDTAB
  0
TABLE
  2
LAYER
  5
327A
330
0
100
AcDbSymbolTable
 70
     6
  0
LAYER
  5
3288
330
327A
100
AcDbSymbolTableRecord
100
AcDbLayerTableRecord
  2
0
 70
     0
 62
     7
  6
CONTINUOUS
  0
LAYER
  5
32A7
330
327A
100
AcDbSymbolTableRecord
100
AcDbLayerTableRecord
  2
CENTER
 70
     0
 62
     4
  6
CENTER2
  0
LAYER
  5
32A8
330
327A
100
AcDbSymbolTableRecord
100
AcDbLayerTableRecord
  2
DIMENSION
 70
     0
 62
     3
  6
CONTINUOUS
  0
LAYER
  5
32AA
330
327A
100
AcDbSymbolTableRecord
100
AcDbLayerTableRecord
  2
LINE
 70
     0
 62
     2
  6
CONTINUOUS
  0
LAYER
  5
32AB
330
327A
100
AcDbSymbolTableRecord
100
AcDbLayerTableRecord
  2
TEXT
 70
     0
 62
     3
  6
CONTINUOUS
  0
LAYER
  5
32AC
330
327A
100
AcDbSymbolTableRecord
100
AcDbLayerTableRecord
  2
DEFPOINTS
 70
     0
 62
    -7
  6
CONTINUOUS
  0
ENDTAB
  0
TABLE
  2
STYLE
  5
327B
330
0
100
AcDbSymbolTable
 70
     2
  0
STYLE
  5
3289
330
327B
100
AcDbSymbolTableRecord
100
AcDbTextStyleTableRecord
  2
STANDARD
 70
     0
 40
0.0
 41
1.0
 50
0.0
 71
     0
 42
2.5
  3
txt
  4
extfont.shx
  0
STYLE
  5
329A
330
327B
100
AcDbSymbolTableRecord
100
AcDbTextStyleTableRecord
  2
GOTHIC
 70
     0
 40
0.0
 41
1.0
 50
0.0
 71
     0
 42
1.5
  3
txt
  4
extfont.shx
  0
ENDTAB
  0
TABLE
  2
VIEW
  5
327E
330
0
100
AcDbSymbolTable
 70
     0
  0
ENDTAB
  0
TABLE
  2
UCS
  5
327F
330
0
100
AcDbSymbolTable
 70
     0
  0
ENDTAB
  0
TABLE
  2
APPID
  5
3281
330
0
100
AcDbSymbolTable
 70
     4
  0
APPID
  5
328A
330
3281
100
AcDbSymbolTableRecord
100
AcDbRegAppTableRecord
  2
ACAD
 70
     0
  0
APPID
  5
32B3
330
3281
100
AcDbSymbolTableRecord
100
AcDbRegAppTableRecord
  2
ACAD_DSTYLE_DIMTEXT_FILL
 70
     0
  0
APPID
  5
32B4
330
3281
100
AcDbSymbolTableRecord
100
AcDbRegAppTableRecord
  2
ACAD_PSEXT
 70
     0
  0
APPID
  5
32B5
330
3281
100
AcDbSymbolTableRecord
100
AcDbRegAppTableRecord
  2
CONTENTBLOCKICON
 70
     0
  0
ENDTAB
  0
TABLE
  2
DIMSTYLE
  5
3282
330
0
100
AcDbSymbolTable
 70
     2
  0
DIMSTYLE
105
32B6
102
{ACAD_REACTORS
330
4035
330
4041
330
4049
330
404A
330
404B
330
4096
330
40A1
330
40AB
330
40AC
330
40C1
102
}
330
3282
100
AcDbSymbolTableRecord
100
AcDbDimStyleTableRecord
  2
ISO-25
 70
     0
  3

  4

  5

  6

  7

 40
1.0
 41
2.5
 42
0.625
 43
3.75
 44
1.25
 45
0.0
 46
0.0
 47
0.0
 48
0.0
140
2.5
141
2.5
142
0.0
143
0.03937007874016
144
1.0
145
0.0
146
1.0
147
0.625
 71
     0
 72
     0
 73
     0
 74
     0
 75
     0
 76
     0
 77
     1
 78
     8
170
     0
171
     3
172
     1
173
     0
174
     0
175
     0
176
     0
177
     0
178
     0
270
     2
271
     4
272
     4
273
     2
274
     3
340
329A
275
     0
280
     0
281
     0
282
     0
283
     1
284
     8
285
     8
286
     8
287
     3
288
     0
  0
DIMSTYLE
105
32B8
330
3282
100
AcDbSymbolTableRecord
100
AcDbDimStyleTableRecord
  2
VESSEL_ENGINEERING_ORIGIN0
 70
     0
  3

  4

  5

  6

  7

 40
1.0
 41
1.0
 42
0.0
 43
1.5
 44
1.5
 45
0.0
 46
0.0
 47
0.0
 48
0.0
140
1.5
141
0.0
142
0.0
143
0.03937007874016
144
1.0
145
0.0
146
1.0
147
0.5
 71
     0
 72
     0
 73
     0
 74
     0
 75
     0
 76
     0
 77
     1
 78
     8
170
     0
171
     3
172
     1
173
     0
174
     0
175
     0
176
   256
177
   256
178
   256
270
     2
271
     4
272
     4
273
     2
274
     3
340
329A
275
     0
280
     0
281
     0
282
     0
283
     1
284
     8
285
     8
286
     8
287
     3
288
     0
  0
ENDTAB
  0
TABLE
  2
BLOCK_RECORD
  5
3279
330
0
100
AcDbSymbolTable
 70
    25
  0
BLOCK_RECORD
  5
3296
102
{ACAD_XDICTIONARY
360
40CB
102
}
330
3279
100
AcDbSymbolTableRecord
100
AcDbBlockTableRecord
  2
*MODEL_SPACE
  0
BLOCK_RECORD
  5
3292
102
{ACAD_XDICTIONARY
360
40C9
102
}
330
3279
100
AcDbSymbolTableRecord
100
AcDbBlockTableRecord
  2
*PAPER_SPACE
  0
BLOCK_RECORD
  5
32CA
330
3279
100
AcDbSymbolTableRecord
100
AcDbBlockTableRecord
  2
_OPEN30
  0
BLOCK_RECORD
  5
3B47
330
3279
100
AcDbSymbolTableRecord
100
AcDbBlockTableRecord
  2
*D1
  0
BLOCK_RECORD
  5
3B4E
330
3279
100
AcDbSymbolTableRecord
100
AcDbBlockTableRecord
  2
*U2
  0
BLOCK_RECORD
  5
3B6A
330
3279
100
AcDbSymbolTableRecord
100
AcDbBlockTableRecord
  2
*D3
  0
BLOCK_RECORD
  5
3B70
330
3279
100
AcDbSymbolTableRecord
100
AcDbBlockTableRecord
  2
*U4
  0
BLOCK_RECORD
  5
3B76
330
3279
100
AcDbSymbolTableRecord
100
AcDbBlockTableRecord
  2
*D5
  0
BLOCK_RECORD
  5
3B7D
330
3279
100
AcDbSymbolTableRecord
100
AcDbBlockTableRecord
  2
*U6
  0
BLOCK_RECORD
  5
3BB7
330
3279
100
AcDbSymbolTableRecord
100
AcDbBlockTableRecord
  2
*D7
  0
BLOCK_RECORD
  5
3BC0
330
3279
100
AcDbSymbolTableRecord
100
AcDbBlockTableRecord
  2
*U8
  0
BLOCK_RECORD
  5
3BF9
330
3279
100
AcDbSymbolTableRecord
100
AcDbBlockTableRecord
  2
*D9
  0
BLOCK_RECORD
  5
3BFF
330
3279
100
AcDbSymbolTableRecord
100
AcDbBlockTableRecord
  2
*U10
  0
BLOCK_RECORD
  5
3C05
330
3279
100
AcDbSymbolTableRecord
100
AcDbBlockTableRecord
  2
*D11
  0
BLOCK_RECORD
  5
3C4F
330
3279
100
AcDbSymbolTableRecord
100
AcDbBlockTableRecord
  2
*D12
  0
BLOCK_RECORD
  5
3C56
330
3279
100
AcDbSymbolTableRecord
100
AcDbBlockTableRecord
  2
*U13
  0
BLOCK_RECORD
  5
3C67
330
3279
100
AcDbSymbolTableRecord
100
AcDbBlockTableRecord
  2
*D14
  0
BLOCK_RECORD
  5
3C6E
330
3279
100
AcDbSymbolTableRecord
100
AcDbBlockTableRecord
  2
*U15
  0
BLOCK_RECORD
  5
3C81
330
3279
100
AcDbSymbolTableRecord
100
AcDbBlockTableRecord
  2
*D16
  0
BLOCK_RECORD
  5
3C8D
330
3279
100
AcDbSymbolTableRecord
100
AcDbBlockTableRecord
  2
*D17
  0
BLOCK_RECORD
  5
3C94
330
3279
100
AcDbSymbolTableRecord
100
AcDbBlockTableRecord
  2
*U18
  0
BLOCK_RECORD
  5
3FAB
330
3279
100
AcDbSymbolTableRecord
100
AcDbBlockTableRecord
  2
*U19
  0
BLOCK_RECORD
  5
3FAF
330
3279
100
AcDbSymbolTableRecord
100
AcDbBlockTableRecord
  2
*U20
  0
BLOCK_RECORD
  5
3FB9
330
3279
100
AcDbSymbolTableRecord
100
AcDbBlockTableRecord
  2
*U21
  0
BLOCK_RECORD
  5
3FBD
330
3279
100
AcDbSymbolTableRecord
100
AcDbBlockTableRecord
  2
*U22
  0
BLOCK_RECORD
  5
40CD
330
3279
100
AcDbSymbolTableRecord
100
AcDbBlockTableRecord
  2
*D23
  0
BLOCK_RECORD
  5
40D8
330
3279
100
AcDbSymbolTableRecord
100
AcDbBlockTableRecord
  2
*D24
  0
ENDTAB
  0
ENDSEC
  0
SECTION
  2
BLOCKS
  0
BLOCK
  5
3297
330
3296
100
AcDbEntity
  8
0
100
AcDbBlockBegin
  2
*MODEL_SPACE
 70
     0
 10
0.0
 20
0.0
 30
0.0
  3
*MODEL_SPACE
  1

  0
ENDBLK
  5
3298
330
3296
100
AcDbEntity
  8
0
100
AcDbBlockEnd
  0
BLOCK
  5
3293
330
3292
100
AcDbEntity
 67
     1
  8
0
100
AcDbBlockBegin
  2
*PAPER_SPACE
 70
     0
 10
0.0
 20
0.0
 30
0.0
  3
*PAPER_SPACE
  1

  0
ENDBLK
  5
3294
330
3292
100
AcDbEntity
 67
     1
  8
0
100
AcDbBlockEnd
  0
BLOCK
  5
32CB
330
32CA
100
AcDbEntity
  8
0
100
AcDbBlockBegin
  2
_OPEN30
 70
     0
 10
0.0
 20
0.0
 30
0.0
  3
_OPEN30
  1

  0
LINE
  5
32CC
330
32CA
100
AcDbEntity
  8
0
  6
BYBLOCK
 62
     0
100
AcDbLine
 10
-1.0
 20
0.26794919
 30
0.0
 11
0.0
 21
0.0
 31
0.0
  0
LINE
  5
32CD
330
32CA
100
AcDbEntity
  8
0
  6
BYBLOCK
 62
     0
100
AcDbLine
 10
0.0
 20
0.0
 30
0.0
 11
-1.0
 21
-0.26794919
 31
0.0
  0
LINE
  5
32CE
330
32CA
100
AcDbEntity
  8
0
  6
BYBLOCK
 62
     0
100
AcDbLine
 10
0.0
 20
0.0
 30
0.0
 11
-1.0
 21
0.0
 31
0.0
  0
ENDBLK
  5
32CF
330
32CA
100
AcDbEntity
  8
0
100
AcDbBlockEnd
  0
BLOCK
  5
3B48
330
3B47
100
AcDbEntity
  8
0
100
AcDbBlockBegin
  2
*D1
 70
     1
 10
0.0
 20
0.0
 30
0.0
  3
*D1
  1

  0
LINE
  5
3B49
330
3B47
100
AcDbEntity
  8
DIMENSION
100
AcDbLine
 10
45.24999999999979
 20
74.99999999999978
 30
0.0
 11
45.24999999999979
 21
90.24999999999993
 31
0.0
  0
LINE
  5
3B4A
330
3B47
100
AcDbEntity
  8
DIMENSION
100
AcDbLine
 10
74.24999999999998
 20
82.74999999999989
 30
0.0
 11
74.24999999999998
 21
90.24999999999993
 31
0.0
  0
LINE
  5
3B4B
330
3B47
100
AcDbEntity
  8
DIMENSION
100
AcDbLine
 10
46.24999999999981
 20
88.74999999999991
 30
0.0
 11
73.24999999999999
 21
88.74999999999991
 31
0.0
  0
INSERT
  5
3B4C
330
3B47
100
AcDbEntity
  8
DIMENSION
100
AcDbBlockReference
  2
_OPEN30
 10
45.24999999999979
 20
88.74999999999991
 30
0.0
 50
180.0
  0
INSERT
  5
3B4D
330
3B47
100
AcDbEntity
  8
DIMENSION
100
AcDbBlockReference
  2
_OPEN30
 10
74.24999999999998
 20
88.74999999999991
 30
0.0
  0
INSERT
  5
3B4F
330
3B47
100
AcDbEntity
  8
0
100
AcDbBlockReference
  2
*U2
 10
0.0
 20
0.0
 30
0.0
  0
POINT
  5
3B50
330
3B47
100
AcDbEntity
  8
DEFPOINTS
 62
     0
100
AcDbPoint
 10
45.24999999999979
 20
74.99999999999978
 30
0.0
  0
POINT
  5
3B51
330
3B47
100
AcDbEntity
  8
DEFPOINTS
 62
     0
100
AcDbPoint
 10
74.24999999999998
 20
82.74999999999989
 30
0.0
  0
POINT
  5
3B52
330
3B47
100
AcDbEntity
  8
DEFPOINTS
 62
     0
100
AcDbPoint
 10
74.24999999999998
 20
88.74999999999991
 30
0.0
  0
ENDBLK
  5
3B53
330
3B47
100
AcDbEntity
  8
0
100
AcDbBlockEnd
  0
BLOCK
  5
401B
330
3B4E
100
AcDbEntity
  8
0
100
AcDbBlockBegin
  2
*U2
 70
     1
 10
0.0
 20
0.0
 30
0.0
  3
*U2
  1

  0
TEXT
  5
401C
330
3B4E
100
AcDbEntity
  8
DIMENSION
100
AcDbText
 10
58.78680203045674
 20
89.2499999999999
 30
0.0
 40
1.5
  1
29
  7
GOTHIC
100
AcDbText
  0
ENDBLK
  5
401D
330
3B4E
100
AcDbEntity
  8
0
100
AcDbBlockEnd
  0
BLOCK
  5
3B6B
330
3B6A
100
AcDbEntity
  8
0
100
AcDbBlockBegin
  2
*D3
 70
     1
 10
0.0
 20
0.0
 30
0.0
  3
*D3
  1

  0
LINE
  5
3B6C
330
3B6A
100
AcDbEntity
  8
DIMENSION
100
AcDbLine
 10
19.10164880763439
 20
80.9999999999999
 30
0.0
 11
19.10164880763439
 21
85.74999999999993
 31
0.0
  0
LINE
  5
3B6D
330
3B6A
100
AcDbEntity
  8
DIMENSION
100
AcDbLine
 10
20.10164880763441
 20
84.24999999999993
 30
0.0
 11
23.10164880763441
 21
84.24999999999993
 31
0.0
  0
INSERT
  5
3B6E
330
3B6A
100
AcDbEntity
  8
DIMENSION
100
AcDbBlockReference
  2
_OPEN30
 10
19.10164880763439
 20
84.24999999999993
 30
0.0
 50
180.0
  0
INSERT
  5
3B6F
330
3B6A
100
AcDbEntity
  8
DIMENSION
100
AcDbBlockReference
  2
_OPEN30
 10
24.10164880763441
 20
84.24999999999993
 30
0.0
  0
INSERT
  5
3B71
330
3B6A
100
AcDbEntity
  8
0
100
AcDbBlockReference
  2
*U4
 10
0.0
 20
0.0
 30
0.0
  0
POINT
  5
3B72
330
3B6A
100
AcDbEntity
  8
DEFPOINTS
 62
     0
100
AcDbPoint
 10
19.10164880763439
 20
80.9999999999999
 30
0.0
  0
POINT
  5
3B73
330
3B6A
100
AcDbEntity
  8
DEFPOINTS
 62
     0
100
AcDbPoint
 10
24.10164880763441
 20
80.9999999999999
 30
0.0
  0
POINT
  5
3B74
330
3B6A
100
AcDbEntity
  8
DEFPOINTS
 62
     0
100
AcDbPoint
 10
24.10164880763441
 20
84.24999999999993
 30
0.0
  0
ENDBLK
  5
3B75
330
3B6A
100
AcDbEntity
  8
0
100
AcDbBlockEnd
  0
BLOCK
  5
4021
330
3B70
100
AcDbEntity
  8
0
100
AcDbBlockBegin
  2
*U4
 70
     1
 10
0.0
 20
0.0
 30
0.0
  3
*U4
  1

  0
TEXT
  5
4022
330
3B70
100
AcDbEntity
  8
DIMENSION
100
AcDbText
 10
21.12956758936028
 20
84.7499999999999
 30
0.0
 40
1.5
  1
5
  7
GOTHIC
100
AcDbText
  0
ENDBLK
  5
4023
330
3B70
100
AcDbEntity
  8
0
100
AcDbBlockEnd
  0
BLOCK
  5
3B77
330
3B76
100
AcDbEntity
  8
0
100
AcDbBlockBegin
  2
*D5
 70
     1
 10
0.0
 20
0.0
 30
0.0
  3
*D5
  1

  0
LINE
  5
3B78
330
3B76
100
AcDbEntity
  8
DIMENSION
100
AcDbLine
 10
17.10164880763441
 20
80.9999999999999
 30
0.0
 11
10.21633111563913
 21
80.9999999999999
 31
0.0
  0
LINE
  5
3B79
330
3B76
100
AcDbEntity
  8
DIMENSION
100
AcDbLine
 10
17.10164880763441
 20
65.99999999999993
 30
0.0
 11
10.21633111563913
 21
65.99999999999993
 31
0.0
  0
LINE
  5
3B7A
330
3B76
100
AcDbEntity
  8
DIMENSION
100
AcDbLine
 10
11.71633111563913
 20
79.9999999999999
 30
0.0
 11
11.71633111563913
 21
66.99999999999993
 31
0.0
  0
INSERT
  5
3B7B
330
3B76
100
AcDbEntity
  8
DIMENSION
100
AcDbBlockReference
  2
_OPEN30
 10
11.71633111563913
 20
80.9999999999999
 30
0.0
 50
90.0
  0
INSERT
  5
3B7C
330
3B76
100
AcDbEntity
  8
DIMENSION
100
AcDbBlockReference
  2
_OPEN30
 10
11.71633111563913
 20
65.99999999999993
 30
0.0
 50
270.0
  0
INSERT
  5
3B7E
330
3B76
100
AcDbEntity
  8
0
100
AcDbBlockReference
  2
*U6
 10
0.0
 20
0.0
 30
0.0
  0
POINT
  5
3B7F
330
3B76
100
AcDbEntity
  8
DEFPOINTS
 62
     0
100
AcDbPoint
 10
17.10164880763441
 20
80.9999999999999
 30
0.0
  0
POINT
  5
3B80
330
3B76
100
AcDbEntity
  8
DEFPOINTS
 62
     0
100
AcDbPoint
 10
17.10164880763441
 20
65.99999999999993
 30
0.0
  0
POINT
  5
3B81
330
3B76
100
AcDbEntity
  8
DEFPOINTS
 62
     0
100
AcDbPoint
 10
11.71633111563913
 20
65.99999999999993
 30
0.0
  0
ENDBLK
  5
3B82
330
3B76
100
AcDbEntity
  8
0
100
AcDbBlockEnd
  0
BLOCK
  5
4024
330
3B7D
100
AcDbEntity
  8
0
100
AcDbBlockBegin
  2
*U6
 70
     1
 10
0.0
 20
0.0
 30
0.0
  3
*U6
  1

  0
TEXT
  5
4025
330
3B7D
100
AcDbEntity
  8
DIMENSION
100
AcDbText
 10
11.2163311156391
 20
72.48730964466995
 30
0.0
 40
1.5
  1
15
 50
90.0
  7
GOTHIC
100
AcDbText
  0
ENDBLK
  5
4026
330
3B7D
100
AcDbEntity
  8
0
100
AcDbBlockEnd
  0
BLOCK
  5
3BB8
330
3BB7
100
AcDbEntity
  8
0
100
AcDbBlockBegin
  2
*D7
 70
     1
 10
0.0
 20
0.0
 30
0.0
  3
*D7
  1

  0
LINE
  5
3BB9
330
3BB7
100
AcDbEntity
  8
DIMENSION
100
AcDbLine
 10
45.25
 20
74.9999999999999
 30
0.0
 11
39.75
 21
74.9999999999999
 31
0.0
  0
LINE
  5
3BBA
330
3BB7
100
AcDbEntity
  8
DIMENSION
100
AcDbLine
 10
45.25000000000001
 20
71.99999999999993
 30
0.0
 11
39.75
 21
71.99999999999993
 31
0.0
  0
LINE
  5
3BBB
330
3BB7
100
AcDbEntity
  8
DIMENSION
100
AcDbLine
 10
41.25
 20
75.99999999999993
 30
0.0
 11
41.25
 21
76.99999999999993
 31
0.0
  0
LINE
  5
3BBC
330
3BB7
100
AcDbEntity
  8
DIMENSION
100
AcDbLine
 10
41.25
 20
70.99999999999993
 30
0.0
 11
41.25
 21
69.99999999999992
 31
0.0
  0
LINE
  5
3BBD
330
3BB7
100
AcDbEntity
  8
DIMENSION
100
AcDbLine
 10
41.25
 20
74.9999999999999
 30
0.0
 11
41.25
 21
71.99999999999993
 31
0.0
  0
INSERT
  5
3BBE
330
3BB7
100
AcDbEntity
  8
DIMENSION
100
AcDbBlockReference
  2
_OPEN30
 10
41.25
 20
74.9999999999999
 30
0.0
 50
270.0
  0
INSERT
  5
3BBF
330
3BB7
100
AcDbEntity
  8
DIMENSION
100
AcDbBlockReference
  2
_OPEN30
 10
41.25
 20
71.99999999999993
 30
0.0
 50
90.0
  0
INSERT
  5
3BC1
330
3BB7
100
AcDbEntity
  8
0
100
AcDbBlockReference
  2
*U8
 10
0.0
 20
0.0
 30
0.0
  0
POINT
  5
3BC2
330
3BB7
100
AcDbEntity
  8
DEFPOINTS
 62
     0
100
AcDbPoint
 10
45.25
 20
74.9999999999999
 30
0.0
  0
POINT
  5
3BC3
330
3BB7
100
AcDbEntity
  8
DEFPOINTS
 62
     0
100
AcDbPoint
 10
45.25000000000001
 20
71.99999999999993
 30
0.0
  0
POINT
  5
3BC4
330
3BB7
100
AcDbEntity
  8
DEFPOINTS
 62
     0
100
AcDbPoint
 10
41.25
 20
71.99999999999993
 30
0.0
  0
ENDBLK
  5
3BC5
330
3BB7
100
AcDbEntity
  8
0
100
AcDbBlockEnd
  0
BLOCK
  5
3FD9
330
3BC0
100
AcDbEntity
  8
0
100
AcDbBlockBegin
  2
*U8
 70
     1
 10
0.0
 20
0.0
 30
0.0
  3
*U8
  1

  0
TEXT
  5
3FDA
330
3BC0
100
AcDbEntity
  8
DIMENSION
100
AcDbText
 10
40.74999999999999
 20
73.02791878172583
 30
0.0
 40
1.5
  1
3
 50
90.0
  7
GOTHIC
100
AcDbText
  0
ENDBLK
  5
3FDB
330
3BC0
100
AcDbEntity
  8
0
100
AcDbBlockEnd
  0
BLOCK
  5
3BFA
330
3BF9
100
AcDbEntity
  8
0
100
AcDbBlockBegin
  2
*D9
 70
     1
 10
0.0
 20
0.0
 30
0.0
  3
*D9
  1

  0
LINE
  5
3BFB
330
3BF9
100
AcDbEntity
  8
DIMENSION
100
AcDbLine
 10
63.25
 20
80.9999999999999
 30
0.0
 11
63.25
 21
85.74999999999993
 31
0.0
  0
LINE
  5
3BFC
330
3BF9
100
AcDbEntity
  8
DIMENSION
100
AcDbLine
 10
64.25
 20
84.24999999999993
 30
0.0
 11
73.25
 21
84.24999999999993
 31
0.0
  0
INSERT
  5
3BFD
330
3BF9
100
AcDbEntity
  8
DIMENSION
100
AcDbBlockReference
  2
_OPEN30
 10
63.25
 20
84.24999999999993
 30
0.0
 50
180.0
  0
INSERT
  5
3BFE
330
3BF9
100
AcDbEntity
  8
DIMENSION
100
AcDbBlockReference
  2
_OPEN30
 10
74.25
 20
84.24999999999993
 30
0.0
  0
INSERT
  5
3C00
330
3BF9
100
AcDbEntity
  8
0
100
AcDbBlockReference
  2
*U10
 10
0.0
 20
0.0
 30
0.0
  0
POINT
  5
3C01
330
3BF9
100
AcDbEntity
  8
DEFPOINTS
 62
     0
100
AcDbPoint
 10
63.25
 20
80.9999999999999
 30
0.0
  0
POINT
  5
3C02
330
3BF9
100
AcDbEntity
  8
DEFPOINTS
 62
     0
100
AcDbPoint
 10
74.25
 20
82.74999999999993
 30
0.0
  0
POINT
  5
3C03
330
3BF9
100
AcDbEntity
  8
DEFPOINTS
 62
     0
100
AcDbPoint
 10
74.25
 20
84.24999999999993
 30
0.0
  0
ENDBLK
  5
3C04
330
3BF9
100
AcDbEntity
  8
0
100
AcDbBlockEnd
  0
BLOCK
  5
3FE5
330
3BFF
100
AcDbEntity
  8
0
100
AcDbBlockBegin
  2
*U10
 70
     1
 10
0.0
 20
0.0
 30
0.0
  3
*U10
  1

  0
TEXT
  5
3FE6
330
3BFF
100
AcDbEntity
  8
DIMENSION
100
AcDbText
 10
67.87055837563453
 20
84.7499999999999
 30
0.0
 40
1.5
  1
11
  7
GOTHIC
100
AcDbText
  0
ENDBLK
  5
3FE7
330
3BFF
100
AcDbEntity
  8
0
100
AcDbBlockEnd
  0
BLOCK
  5
3C06
330
3C05
100
AcDbEntity
  8
0
100
AcDbBlockBegin
  2
*D11
 70
     1
 10
0.0
 20
0.0
 30
0.0
  3
*D11
  1

  0
LINE
  5
3C07
330
3C05
100
AcDbEntity
  8
DIMENSION
100
AcDbLine
 10
63.25
 20
80.9999999999999
 30
0.0
 11
63.25
 21
85.74999999999963
 31
0.0
  0
LINE
  5
3C08
330
3C05
100
AcDbEntity
  8
DIMENSION
100
AcDbLine
 10
46.25
 20
84.24999999999963
 30
0.0
 11
62.25
 21
84.24999999999963
 31
0.0
  0
INSERT
  5
3C09
330
3C05
100
AcDbEntity
  8
DIMENSION
100
AcDbBlockReference
  2
_OPEN30
 10
45.25
 20
84.24999999999963
 30
0.0
 50
180.0
  0
INSERT
  5
3C0A
330
3C05
100
AcDbEntity
  8
DIMENSION
100
AcDbBlockReference
  2
_OPEN30
 10
63.25
 20
84.24999999999963
 30
0.0
  0
TEXT
  5
3C0B
330
3C05
100
AcDbEntity
  8
DIMENSION
100
AcDbText
 10
54.25
 20
83.55
 30
0.0
 40
1.5
  1
18
  7
GOTHIC
100
AcDbText
  0
POINT
  5
3C0C
330
3C05
100
AcDbEntity
  8
DEFPOINTS
 62
     0
100
AcDbPoint
 10
45.25
 20
74.9999999999999
 30
0.0
  0
POINT
  5
3C0D
330
3C05
100
AcDbEntity
  8
DEFPOINTS
 62
     0
100
AcDbPoint
 10
63.25
 20
80.9999999999999
 30
0.0
  0
POINT
  5
3C0E
330
3C05
100
AcDbEntity
  8
DEFPOINTS
 62
     0
100
AcDbPoint
 10
63.25
 20
84.24999999999963
 30
0.0
  0
ENDBLK
  5
3C0F
330
3C05
100
AcDbEntity
  8
0
100
AcDbBlockEnd
  0
BLOCK
  5
3C50
330
3C4F
100
AcDbEntity
  8
0
100
AcDbBlockBegin
  2
*D12
 70
     1
 10
0.0
 20
0.0
 30
0.0
  3
*D12
  1

  0
LINE
  5
3C51
330
3C4F
100
AcDbEntity
  8
DIMENSION
100
AcDbLine
 10
45.25000000000001
 20
47.0
 30
0.0
 11
38.25
 21
47.0
 31
0.0
  0
LINE
  5
3C52
330
3C4F
100
AcDbEntity
  8
DIMENSION
100
AcDbLine
 10
57.18304236144312
 20
42.00000000000001
 30
0.0
 11
38.25
 21
42.00000000000001
 31
0.0
  0
LINE
  5
3C53
330
3C4F
100
AcDbEntity
  8
DIMENSION
100
AcDbLine
 10
39.75
 20
46.0
 30
0.0
 11
39.75
 21
43.00000000000002
 31
0.0
  0
INSERT
  5
3C54
330
3C4F
100
AcDbEntity
  8
DIMENSION
100
AcDbBlockReference
  2
_OPEN30
 10
39.75
 20
47.0
 30
0.0
 50
90.0
  0
INSERT
  5
3C55
330
3C4F
100
AcDbEntity
  8
DIMENSION
100
AcDbBlockReference
  2
_OPEN30
 10
39.75
 20
42.00000000000001
 30
0.0
 50
270.0
  0
INSERT
  5
3C57
330
3C4F
100
AcDbEntity
  8
0
100
AcDbBlockReference
  2
*U13
 10
0.0
 20
0.0
 30
0.0
  0
POINT
  5
3C58
330
3C4F
100
AcDbEntity
  8
DEFPOINTS
 62
     0
100
AcDbPoint
 10
45.25000000000001
 20
47.0
 30
0.0
  0
POINT
  5
3C59
330
3C4F
100
AcDbEntity
  8
DEFPOINTS
 62
     0
100
AcDbPoint
 10
57.18304236144312
 20
42.00000000000001
 30
0.0
  0
POINT
  5
3C5A
330
3C4F
100
AcDbEntity
  8
DEFPOINTS
 62
     0
100
AcDbPoint
 10
39.75
 20
42.00000000000001
 30
0.0
  0
ENDBLK
  5
3C5B
330
3C4F
100
AcDbEntity
  8
0
100
AcDbBlockEnd
  0
BLOCK
  5
400D
330
3C56
100
AcDbEntity
  8
0
100
AcDbBlockBegin
  2
*U13
 70
     1
 10
0.0
 20
0.0
 30
0.0
  3
*U13
  1

  0
TEXT
  5
400E
330
3C56
100
AcDbEntity
  8
DIMENSION
100
AcDbText
 10
39.24999999999999
 20
44.02791878172592
 30
0.0
 40
1.5
  1
5
 50
90.0
  7
GOTHIC
100
AcDbText
  0
ENDBLK
  5
400F
330
3C56
100
AcDbEntity
  8
0
100
AcDbBlockEnd
  0
BLOCK
  5
3C68
330
3C67
100
AcDbEntity
  8
0
100
AcDbBlockBegin
  2
*D14
 70
     1
 10
0.0
 20
0.0
 30
0.0
  3
*D14
  1

  0
LINE
  5
3C69
330
3C67
100
AcDbEntity
  8
DIMENSION
100
AcDbLine
 10
108.9271243444676
 20
47.0
 30
0.0
 11
120.75
 21
46.99999999999999
 31
0.0
  0
LINE
  5
3C6A
330
3C67
100
AcDbEntity
  8
DIMENSION
100
AcDbLine
 10
108.9271243444676
 20
40.0
 30
0.0
 11
120.75
 21
40.0
 31
0.0
  0
LINE
  5
3C6B
330
3C67
100
AcDbEntity
  8
DIMENSION
100
AcDbLine
 10
119.25
 20
45.99999999999999
 30
0.0
 11
119.25
 21
40.99999999999999
 31
0.0
  0
INSERT
  5
3C6C
330
3C67
100
AcDbEntity
  8
DIMENSION
100
AcDbBlockReference
  2
_OPEN30
 10
119.25
 20
46.99999999999999
 30
0.0
 50
90.0
  0
INSERT
  5
3C6D
330
3C67
100
AcDbEntity
  8
DIMENSION
100
AcDbBlockReference
  2
_OPEN30
 10
119.25
 20
40.0
 30
0.0
 50
270.0
  0
INSERT
  5
3C6F
330
3C67
100
AcDbEntity
  8
0
100
AcDbBlockReference
  2
*U15
 10
0.0
 20
0.0
 30
0.0
  0
POINT
  5
3C70
330
3C67
100
AcDbEntity
  8
DEFPOINTS
 62
     0
100
AcDbPoint
 10
108.9271243444676
 20
47.0
 30
0.0
  0
POINT
  5
3C71
330
3C67
100
AcDbEntity
  8
DEFPOINTS
 62
     0
100
AcDbPoint
 10
108.9271243444676
 20
40.0
 30
0.0
  0
POINT
  5
3C72
330
3C67
100
AcDbEntity
  8
DEFPOINTS
 62
     0
100
AcDbPoint
 10
119.25
 20
40.0
 30
0.0
  0
ENDBLK
  5
3C73
330
3C67
100
AcDbEntity
  8
0
100
AcDbBlockEnd
  0
BLOCK
  5
4010
330
3C6E
100
AcDbEntity
  8
0
100
AcDbBlockBegin
  2
*U15
 70
     1
 10
0.0
 20
0.0
 30
0.0
  3
*U15
  1

  0
TEXT
  5
4011
330
3C6E
100
AcDbEntity
  8
DIMENSION
100
AcDbText
 10
118.75
 20
41.56294416243656
 30
0.0
 40
1.5
  1
7
 50
90.0
  7
GOTHIC
100
AcDbText
  0
TEXT
  5
4012
330
3C6E
100
AcDbEntity
  8
DIMENSION
100
AcDbText
 10
117.1621827411166
 20
42.53756345177666
 30
0.0
 40
1.199999999999999
  1
 0
 50
90.0
  7
GOTHIC
100
AcDbText
  0
TEXT
  5
4013
330
3C6E
100
AcDbEntity
  8
DIMENSION
100
AcDbText
 10
118.75
 20
42.5010152284264
 30
0.0
 40
1.199999999999999
  1
-0.1
 50
90.0
  7
GOTHIC
100
AcDbText
  0
ENDBLK
  5
4014
330
3C6E
100
AcDbEntity
  8
0
100
AcDbBlockEnd
  0
BLOCK
  5
3C82
330
3C81
100
AcDbEntity
  8
0
100
AcDbBlockBegin
  2
*D16
 70
     1
 10
0.0
 20
0.0
 30
0.0
  3
*D16
  1

  0
LINE
  5
3C83
330
3C81
100
AcDbEntity
  8
DIMENSION
100
AcDbLine
 10
63.25
 20
40.0
 30
0.0
 11
63.25
 21
33.74999999999999
 31
0.0
  0
LINE
  5
3C84
330
3C81
100
AcDbEntity
  8
DIMENSION
100
AcDbLine
 10
74.25
 20
38.50483583895277
 30
0.0
 11
74.25
 21
33.74999999999999
 31
0.0
  0
LINE
  5
3C85
330
3C81
100
AcDbEntity
  8
DIMENSION
100
AcDbLine
 10
64.25
 20
35.24999999999999
 30
0.0
 11
73.25
 21
35.24999999999999
 31
0.0
  0
INSERT
  5
3C86
330
3C81
100
AcDbEntity
  8
DIMENSION
100
AcDbBlockReference
  2
_OPEN30
 10
63.25
 20
35.24999999999999
 30
0.0
 50
180.0
  0
INSERT
  5
3C87
330
3C81
100
AcDbEntity
  8
DIMENSION
100
AcDbBlockReference
  2
_OPEN30
 10
74.25
 20
35.24999999999999
 30
0.0
  0
TEXT
  5
3C88
330
3C81
100
AcDbEntity
  8
DIMENSION
100
AcDbText
 10
68.75
 20
34.55
 30
0.0
 40
1.5
  1
11
  7
GOTHIC
100
AcDbText
  0
POINT
  5
3C89
330
3C81
100
AcDbEntity
  8
DEFPOINTS
 62
     0
100
AcDbPoint
 10
63.25
 20
40.0
 30
0.0
  0
POINT
  5
3C8A
330
3C81
100
AcDbEntity
  8
DEFPOINTS
 62
     0
100
AcDbPoint
 10
74.25
 20
38.50483583895277
 30
0.0
  0
POINT
  5
3C8B
330
3C81
100
AcDbEntity
  8
DEFPOINTS
 62
     0
100
AcDbPoint
 10
74.25
 20
35.24999999999999
 30
0.0
  0
ENDBLK
  5
3C8C
330
3C81
100
AcDbEntity
  8
0
100
AcDbBlockEnd
  0
BLOCK
  5
3C8E
330
3C8D
100
AcDbEntity
  8
0
100
AcDbBlockBegin
  2
*D17
 70
     1
 10
0.0
 20
0.0
 30
0.0
  3
*D17
  1

  0
LINE
  5
3C8F
330
3C8D
100
AcDbEntity
  8
DIMENSION
100
AcDbLine
 10
74.70062421610609
 20
74.44838695470713
 30
0.0
 11
73.79937578389387
 21
72.55161304529273
 31
0.0
  0
LINE
  5
3C90
330
3C8D
100
AcDbEntity
  8
DIMENSION
100
AcDbLine
 10
73.37020986379281
 20
71.64838737414303
 30
0.0
 11
68.54822335025381
 21
61.50000000000001
 31
0.0
  0
LINE
  5
3C91
330
3C8D
100
AcDbEntity
  8
DIMENSION
100
AcDbLine
 10
68.54822335025381
 20
61.50000000000001
 30
0.0
 11
63.95177664974617
 21
61.50000000000002
 31
0.0
  0
INSERT
  5
3C92
330
3C8D
100
AcDbEntity
  8
DIMENSION
100
AcDbBlockReference
  2
_OPEN30
 10
75.12979013620719
 20
75.35161262585683
 30
0.0
 50
64.58536102135552
  0
INSERT
  5
3C93
330
3C8D
100
AcDbEntity
  8
DIMENSION
100
AcDbBlockReference
  2
_OPEN30
 10
73.37020986379281
 20
71.64838737414303
 30
0.0
 50
244.5853610213555
  0
INSERT
  5
3C95
330
3C8D
100
AcDbEntity
  8
0
100
AcDbBlockReference
  2
*U18
 10
0.0
 20
0.0
 30
0.0
  0
POINT
  5
3C96
330
3C8D
100
AcDbEntity
  8
DEFPOINTS
 62
     0
100
AcDbPoint
 10
73.37020986379281
 20
71.64838737414303
 30
0.0
  0
POINT
  5
3C97
330
3C8D
100
AcDbEntity
  8
DEFPOINTS
 62
     0
100
AcDbPoint
 10
75.12979013620719
 20
75.35161262585683
 30
0.0
  0
ENDBLK
  5
3C98
330
3C8D
100
AcDbEntity
  8
0
100
AcDbBlockEnd
  0
BLOCK
  5
401E
330
3C94
100
AcDbEntity
  8
0
100
AcDbBlockBegin
  2
*U18
 70
     1
 10
0.0
 20
0.0
 30
0.0
  3
*U18
  1

  0
TEXT
  5
401F
330
3C94
100
AcDbEntity
  8
DIMENSION
100
AcDbText
 10
63.55583756345177
 20
62.24365482233503
 30
0.0
 40
1.5
  1
φ4.1
  7
GOTHIC
100
AcDbText
  0
ENDBLK
  5
4020
330
3C94
100
AcDbEntity
  8
0
100
AcDbBlockEnd
  0
BLOCK
  5
3FAC
330
3FAB
100
AcDbEntity
  8
0
100
AcDbBlockBegin
  2
*U19
 70
     1
 10
0.0
 20
0.0
 30
0.0
  3
*U19
  1

  0
TEXT
  5
3FAD
330
3FAB
100
AcDbEntity
  8
DIMENSION
 62
     3
100
AcDbText
 10
18.38634425129724
 20
88.318341845423
 30
0.0
 40
1.5
  1
35°
 50
17.50000000000001
  7
GOTHIC
100
AcDbText
  0
ENDBLK
  5
3FAE
330
3FAB
100
AcDbEntity
  8
0
100
AcDbBlockEnd
  0
BLOCK
  5
3FB0
330
3FAF
100
AcDbEntity
  8
0
100
AcDbBlockBegin
  2
*U20
 70
     1
 10
0.0
 20
0.0
 30
0.0
  3
*U20
  1

  0
INSERT
  5
3FB1
330
3FAF
100
AcDbEntity
  8
DIMENSION
100
AcDbBlockReference
  2
_OPEN30
 10
53.48826537680674
 20
67.31787761165918
 30
0.0
 50
59.81781145565282
  0
POLYLINE
  5
3FB2
330
3FAF
100
AcDbEntity
  8
DIMENSION
100
AcDb2dPolyline
 66
     1
 10
0.0
 20
0.0
 30
0.0
  0
VERTEX
  5
3FB3
330
3FB2
100
AcDbEntity
  8
DIMENSION
100
AcDbVertex
100
AcDb2dVertex
 10
52.98551413032868
 20
66.45344647839016
 30
0.0
  0
VERTEX
  5
3FB4
330
3FB2
100
AcDbEntity
  8
DIMENSION
100
AcDbVertex
100
AcDb2dVertex
 10
50.25
 20
61.74999999999993
 30
0.0
  0
VERTEX
  5
3FB5
330
3FB2
100
AcDbEntity
  8
DIMENSION
100
AcDbVertex
100
AcDb2dVertex
 10
47.25
 20
61.74999999999993
 30
0.0
  0
VERTEX
  5
3FB6
330
3FB2
100
AcDbEntity
  8
DIMENSION
100
AcDbVertex
100
AcDb2dVertex
 10
46.74999999999999
 20
61.74999999999993
 30
0.0
  0
SEQEND
  5
3FB7
330
3FB2
100
AcDbEntity
  8
DIMENSION
  0
ENDBLK
  5
3FB8
330
3FAF
100
AcDbEntity
  8
0
100
AcDbBlockEnd
  0
BLOCK
  5
3FBA
330
3FB9
100
AcDbEntity
  8
0
100
AcDbBlockBegin
  2
*U21
 70
     1
 10
0.0
 20
0.0
 30
0.0
  3
*U21
  1

  0
TEXT
  5
3FBB
330
3FB9
100
AcDbEntity
  8
DIMENSION
 62
     3
100
AcDbText
 10
36.23699306632067
 20
72.67029945600857
 30
0.0
 40
1.5
  1
90°
 50
90.0
  7
GOTHIC
100
AcDbText
  0
ENDBLK
  5
3FBC
330
3FB9
100
AcDbEntity
  8
0
100
AcDbBlockEnd
  0
BLOCK
  5
3FBE
330
3FBD
100
AcDbEntity
  8
0
100
AcDbBlockBegin
  2
*U22
 70
     1
 10
0.0
 20
0.0
 30
0.0
  3
*U22
  1

  0
TEXT
  5
3FBF
330
3FBD
100
AcDbEntity
  8
DIMENSION
 62
     3
100
AcDbText
 10
21.38156527769232
 20
62.0117779539558
 30
0.0
 40
1.5
  1
5°
  7
GOTHIC
100
AcDbText
  0
ENDBLK
  5
3FC0
330
3FBD
100
AcDbEntity
  8
0
100
AcDbBlockEnd
  0
BLOCK
  5
40D6
330
40CD
100
AcDbEntity
  8
0
100
AcDbBlockBegin
  2
*D23
 70
     1
 10
0.0
 20
0.0
 30
0.0
  3
*D23
  1

  0
LINE
  5
40CE
330
40CD
100
AcDbEntity
  8
DIMENSION
 62
     0
100
AcDbLine
 10
63.25
 20
81.6249999999999
 30
0.0
 11
63.25
 21
85.49999999999963
 31
0.0
  0
LINE
  5
40CF
330
40CD
100
AcDbEntity
  8
DIMENSION
 62
     0
100
AcDbLine
 10
47.75
 20
84.24999999999963
 30
0.0
 11
60.75
 21
84.24999999999963
 31
0.0
  0
SOLID
  5
40D0
330
40CD
100
AcDbEntity
  8
DIMENSION
 62
     0
100
AcDbTrace
 10
47.75
 20
84.66666666666631
 30
0.0
 11
47.75
 21
83.83333333333295
 31
0.0
 12
45.25
 22
84.24999999999963
 32
0.0
 13
45.25
 23
84.24999999999963
 33
0.0
  0
SOLID
  5
40D1
330
40CD
100
AcDbEntity
  8
DIMENSION
 62
     0
100
AcDbTrace
 10
60.75
 20
84.66666666666631
 30
0.0
 11
60.75
 21
83.83333333333295
 31
0.0
 12
63.25
 22
84.24999999999963
 32
0.0
 13
63.25
 23
84.24999999999963
 33
0.0
  0
MTEXT
  5
40D2
330
40CD
100
AcDbEntity
  8
DIMENSION
 62
     0
100
AcDbMText
 10
54.25
 20
86.12499999999961
 30
0.0
 40
2.5
 41
0.0
 71
     5
 72
     1
  1
\A1;18
  7
GOTHIC
1001
ACAD
1000
MTEXTBEGIN
1070
    73
1070
     1
1070
    44
1040
1.0
1070
    74
1070
     0
1000
MTEXTEND
  0
POINT
  5
40D3
330
40CD
100
AcDbEntity
  8
DEFPOINTS
 62
     0
100
AcDbPoint
 10
45.25
 20
74.9999999999999
 30
0.0
  0
POINT
  5
40D4
330
40CD
100
AcDbEntity
  8
DEFPOINTS
 62
     0
100
AcDbPoint
 10
63.25
 20
80.9999999999999
 30
0.0
  0
POINT
  5
40D5
330
40CD
100
AcDbEntity
  8
DEFPOINTS
 62
     0
100
AcDbPoint
 10
63.25
 20
84.24999999999963
 30
0.0
  0
ENDBLK
  5
40D7
330
40CD
100
AcDbEntity
  8
0
100
AcDbBlockEnd
  0
BLOCK
  5
40E2
330
40D8
100
AcDbEntity
  8
0
100
AcDbBlockBegin
  2
*D24
 70
     1
 10
0.0
 20
0.0
 30
0.0
  3
*D24
  1

  0
LINE
  5
40D9
330
40D8
100
AcDbEntity
  8
DIMENSION
 62
     0
100
AcDbLine
 10
63.25
 20
39.375
 30
0.0
 11
63.25
 21
33.99999999999999
 31
0.0
  0
LINE
  5
40DA
330
40D8
100
AcDbEntity
  8
DIMENSION
 62
     0
100
AcDbLine
 10
74.25
 20
37.87983583895277
 30
0.0
 11
74.25
 21
33.99999999999999
 31
0.0
  0
LINE
  5
40DB
330
40D8
100
AcDbEntity
  8
DIMENSION
 62
     0
100
AcDbLine
 10
65.75
 20
35.24999999999999
 30
0.0
 11
71.75
 21
35.24999999999999
 31
0.0
  0
SOLID
  5
40DC
330
40D8
100
AcDbEntity
  8
DIMENSION
 62
     0
100
AcDbTrace
 10
65.75
 20
35.66666666666665
 30
0.0
 11
65.75
 21
34.83333333333332
 31
0.0
 12
63.25
 22
35.24999999999999
 32
0.0
 13
63.25
 23
35.24999999999999
 33
0.0
  0
SOLID
  5
40DD
330
40D8
100
AcDbEntity
  8
DIMENSION
 62
     0
100
AcDbTrace
 10
71.75
 20
35.66666666666665
 30
0.0
 11
71.75
 21
34.83333333333332
 31
0.0
 12
74.25
 22
35.24999999999999
 32
0.0
 13
74.25
 23
35.24999999999999
 33
0.0
  0
MTEXT
  5
40DE
330
40D8
100
AcDbEntity
  8
DIMENSION
 62
     0
100
AcDbMText
 10
68.75
 20
37.12499999999999
 30
0.0
 40
2.5
 41
0.0
 71
     5
 72
     1
  1
\A1;11
  7
GOTHIC
1001
ACAD
1000
MTEXTBEGIN
1070
    73
1070
     1
1070
    44
1040
1.0
1070
    74
1070
     0
1000
MTEXTEND
  0
POINT
  5
40DF
330
40D8
100
AcDbEntity
  8
DEFPOINTS
 62
     0
100
AcDbPoint
 10
63.25
 20
40.0
 30
0.0
  0
POINT
  5
40E0
330
40D8
100
AcDbEntity
  8
DEFPOINTS
 62
     0
100
AcDbPoint
 10
74.25
 20
38.50483583895277
 30
0.0
  0
POINT
  5
40E1
330
40D8
100
AcDbEntity
  8
DEFPOINTS
 62
     0
100
AcDbPoint
 10
74.25
 20
35.24999999999999
 30
0.0
  0
ENDBLK
  5
40E3
330
40D8
100
AcDbEntity
  8
0
100
AcDbBlockEnd
  0
ENDSEC
  0
SECTION
  2
ENTITIES
  0
TEXT
  5
4027
330
3296
100
AcDbEntity
  8
TEXT
100
AcDbText
 10
9.0
 20
36.75
 30
0.0
 40
1.5
  1
◇ブレード仕様
  7
GOTHIC
 11
9.0
 21
37.5
 31
0.0
100
AcDbText
 73
     2
  0
TEXT
  5
4028
330
3296
100
AcDbEntity
  8
TEXT
100
AcDbText
 10
12.0
 20
33.75
 30
0.0
 40
1.5
  1
切刃有効長　＝　15
  7
GOTHIC
 11
12.0
 21
34.5
 31
0.0
100
AcDbText
 73
     2
  0
TEXT
  5
4029
330
3296
100
AcDbEntity
  8
TEXT
100
AcDbText
 10
12.0
 20
30.75
 30
0.0
 40
1.5
  1
刃開き最大　＝　 6
  7
GOTHIC
 11
12.0
 21
31.5
 31
0.0
100
AcDbText
 73
     2
  0
LINE
  5
402A
330
3296
100
AcDbEntity
  8
TEXT
100
AcDbLine
 10
12.0
 20
33.0
 30
0.0
 11
30.0
 21
33.0
 31
0.0
  0
LINE
  5
402B
330
3296
100
AcDbEntity
  8
TEXT
100
AcDbLine
 10
12.0
 20
30.0
 30
0.0
 11
30.0
 21
30.0
 31
0.0
  0
TEXT
  5
402C
330
3296
100
AcDbEntity
  8
TEXT
100
AcDbText
 10
15.0
 20
48.75
 30
0.0
 40
1.5
  1
ＮＴ０５ＡＪＶ
  7
GOTHIC
 11
15.0
 21
49.5
 31
0.0
100
AcDbText
 73
     2
  0
TEXT
  5
402E
330
3296
100
AcDbEntity
  8
TEXT
100
AcDbText
 10
15.0
 20
42.75
 30
0.0
 40
1.5
  1
2005/03/23
  7
GOTHIC
 11
15.0
 21
43.5
 31
0.0
100
AcDbText
 73
     2
  0
INSERT
  5
402F
330
3296
100
AcDbEntity
  8
0
100
AcDbBlockReference
  2
*U19
 10
0.0
 20
0.0
 30
0.0
  0
INSERT
  5
4030
330
3296
100
AcDbEntity
  8
DIMENSION
 62
     3
100
AcDbBlockReference
  2
_OPEN30
 10
15.28801791502938
 20
86.08716939143455
 30
0.0
 50
213.1353138396378
  0
INSERT
  5
4031
330
3296
100
AcDbEntity
  8
DIMENSION
 62
     3
100
AcDbBlockReference
  2
_OPEN30
 10
24.10164880763439
 20
88.86609653749927
 30
0.0
 50
1.864686160361725
  0
ARC
  5
4032
330
3296
100
AcDbEntity
  8
DIMENSION
 62
     3
100
AcDbCircle
 10
24.10164880763441
 20
73.49999999999993
 30
0.0
 40
15.36609653749937
100
AcDbArc
 50
93.72937232072443
 51
121.2706276792745
  0
LINE
  5
4033
330
3296
100
AcDbEntity
  8
DIMENSION
 62
     3
100
AcDbLine
 10
19.10164880763442
 20
80.64074003371048
 30
0.0
 11
14.42765326050282
 21
87.31589745786802
 31
0.0
  0
LINE
  5
4034
330
3296
100
AcDbEntity
  8
DIMENSION
 62
     3
100
AcDbLine
 10
24.10164880763441
 20
80.99999999999992
 30
0.0
 11
24.10164880763439
 21
90.36609653749927
 31
0.0
  0
DIMENSION
  5
4035
330
3296
100
AcDbEntity
  8
DIMENSION
100
AcDbDimension
  2
*D3
 10
24.10164880763441
 20
84.24999999999993
 30
0.0
 11
21.60164880763439
 21
85.49999999999993
 31
0.0
  3
ISO-25
100
AcDbAlignedDimension
 13
19.10164880763439
 23
80.9999999999999
 33
0.0
 14
24.10164880763441
 24
80.9999999999999
 34
0.0
100
AcDbRotatedDimension
1001
ACAD
1000
DSTYLE
1002
{
1070
    76
1070
     1
1002
}
  0
LINE
  5
4036
330
3296
100
AcDbEntity
  8
LINE
100
AcDbLine
 10
23.0513375003198
 20
71.9999999999999
 30
0.0
 11
23.97041581234551
 21
71.99999999999993
 31
0.0
  0
LINE
  5
4037
330
3296
100
AcDbEntity
  8
LINE
100
AcDbLine
 10
19.10164880763439
 20
65.99999999999993
 30
0.0
 11
19.10164880763439
 21
66.35925996628936
 31
0.0
  0
LINE
  5
4038
330
3296
100
AcDbEntity
  8
LINE
100
AcDbLine
 10
23.44548383118997
 20
65.99999999999993
 30
0.0
 11
24.10164880763441
 21
73.49999999999993
 31
0.0
  0
LINE
  5
4039
330
3296
100
AcDbEntity
  8
LINE
100
AcDbLine
 10
19.10164880763439
 20
66.35925996628936
 30
0.0
 11
24.10164880763441
 21
73.49999999999993
 31
0.0
  0
LINE
  5
403A
330
3296
100
AcDbEntity
  8
LINE
100
AcDbLine
 10
23.44548383118997
 20
80.9999999999999
 30
0.0
 11
24.10164880763441
 21
73.49999999999993
 31
0.0
  0
LINE
  5
403B
330
3296
100
AcDbEntity
  8
LINE
100
AcDbLine
 10
19.10164880763439
 20
80.6407400337105
 30
0.0
 11
24.10164880763441
 21
73.49999999999993
 31
0.0
  0
LINE
  5
403C
330
3296
100
AcDbEntity
  8
LINE
100
AcDbLine
 10
19.10164880763439
 20
80.9999999999999
 30
0.0
 11
19.10164880763439
 21
80.6407400337105
 31
0.0
  0
LINE
  5
403D
330
3296
100
AcDbEntity
  8
LINE
100
AcDbLine
 10
63.25
 20
73.99999999999993
 30
0.0
 11
63.25
 21
80.9999999999999
 31
0.0
  0
LINE
  5
403E
330
3296
100
AcDbEntity
  8
LINE
100
AcDbLine
 10
63.25
 20
72.99999999999993
 30
0.0
 11
63.25
 21
65.99999999999993
 31
0.0
  0
INSERT
  5
403F
330
3296
100
AcDbEntity
  8
0
100
AcDbBlockReference
  2
*U20
 10
0.0
 20
0.0
 30
0.0
1001
ACAD
1000
DSTYLE
1002
{
1070
   147
1040
0.5
1070
    77
1070
     1
1002
}
  0
TEXT
  5
4040
330
3296
100
AcDbEntity
  8
TEXT
100
AcDbText
 10
80.04827560572945
 20
78.3083261120684
 30
0.0
 40
1.5
  1
Ｖ
 50
134.9999999999994
  7
GOTHIC
 72
     1
 11
79.02297077300895
 21
78.27297077300909
 31
0.0
100
AcDbText
 73
     2
  0
DIMENSION
  5
4041
330
3296
100
AcDbEntity
  8
DIMENSION
100
AcDbDimension
  2
*D5
 10
11.71633111563913
 20
65.99999999999993
 30
0.0
 11
10.46633111563912
 21
73.49999999999993
 31
0.0
  3
ISO-25
100
AcDbAlignedDimension
 13
17.10164880763441
 23
80.9999999999999
 33
0.0
 14
17.10164880763441
 24
65.99999999999993
 34
0.0
 50
90.0
100
AcDbRotatedDimension
  0
TEXT
  5
4042
330
3296
100
AcDbEntity
  8
DIMENSION
100
AcDbText
 10
46.9585144334536
 20
62.515481291412
 30
0.0
 40
1.5
  1
R25
  7
GOTHIC
 11
46.9585144334536
 21
63.265481291412
 31
0.0
100
AcDbText
 73
     2
  0
INSERT
  5
4043
330
3296
100
AcDbEntity
  8
0
100
AcDbBlockReference
  2
*U21
 10
0.0
 20
0.0
 30
0.0
  0
INSERT
  5
4044
330
3296
100
AcDbEntity
  8
DIMENSION
 62
     3
100
AcDbBlockReference
  2
_OPEN30
 10
39.67672282460243
 20
66.42672282460239
 30
0.0
 50
312.1349119648123
  0
INSERT
  5
4045
330
3296
100
AcDbEntity
  8
DIMENSION
 62
     3
100
AcDbBlockReference
  2
_OPEN30
 10
39.67672282460245
 20
80.57327717539745
 30
0.0
 50
47.86508803518777
  0
ARC
  5
4046
330
3296
100
AcDbEntity
  8
DIMENSION
 62
     3
100
AcDbCircle
 10
46.74999999999999
 20
73.49999999999993
 30
0.0
 40
10.00312451187127
100
AcDbArc
 50
140.7301760703738
 51
219.2698239296241
  0
LINE
  5
4047
330
3296
100
AcDbEntity
  8
DIMENSION
 62
     3
100
AcDbLine
 10
45.25
 20
71.99999999999993
 30
0.0
 11
38.6160626528226
 21
65.36606265282258
 31
0.0
  0
LINE
  5
4048
330
3296
100
AcDbEntity
  8
DIMENSION
 62
     3
100
AcDbLine
 10
45.25
 20
74.9999999999999
 30
0.0
 11
38.61606265282264
 21
81.63393734717729
 31
0.0
  0
DIMENSION
  5
4049
330
3296
100
AcDbEntity
  8
DIMENSION
100
AcDbDimension
  2
*D7
 10
41.25
 20
71.99999999999993
 30
0.0
 11
40.0
 21
73.49999999999993
 31
0.0
  3
ISO-25
100
AcDbAlignedDimension
 13
45.25
 23
74.9999999999999
 33
0.0
 14
45.25000000000001
 24
71.99999999999993
 34
0.0
 50
90.0
100
AcDbRotatedDimension
  0
DIMENSION
  5
404A
330
3296
100
AcDbEntity
  8
DIMENSION
100
AcDbDimension
  2
*D9
 10
74.25
 20
84.24999999999993
 30
0.0
 11
68.75
 21
85.49999999999993
 31
0.0
  3
ISO-25
100
AcDbAlignedDimension
 13
63.25
 23
80.9999999999999
 33
0.0
 14
74.25
 24
82.74999999999993
 34
0.0
100
AcDbRotatedDimension
1001
ACAD
1000
DSTYLE
1002
{
1070
    76
1070
     1
1002
}
  0
DIMENSION
  5
404B
330
3296
100
AcDbEntity
  8
DIMENSION
100
AcDbDimension
  2
*D23
 10
63.25
 20
84.24999999999963
 30
0.0
 11
54.25
 21
86.12499999999961
 31
0.0
 70
    32
  3
ISO-25
100
AcDbAlignedDimension
 13
45.25
 23
74.9999999999999
 33
0.0
 14
63.25
 24
80.9999999999999
 34
0.0
100
AcDbRotatedDimension
1001
ACAD
1000
DSTYLE
1002
{
1070
   287
1070
     3
1070
   287
1070
     3
1070
   279
1070
     0
1070
    75
1070
     1
1002
}
  0
TEXT
  5
404C
330
3296
100
AcDbEntity
  8
TEXT
  6
BYBLOCK
100
AcDbText
 10
69.91601295855862
 20
69.29208408774375
 30
0.0
 40
1.5
  1
Ｖ
 50
127.499999999999
  7
GOTHIC
 72
     1
 11
68.8948649530341
 21
69.39086035419109
 31
0.0
100
AcDbText
 73
     2
  0
TEXT
  5
404D
330
3296
100
AcDbEntity
  8
TEXT
  6
BYBLOCK
100
AcDbText
 10
81.09519052838322
 20
76.64378221735089
 30
0.0
 40
1.5
  1
Ｊ
 50
119.999999999999
  7
GOTHIC
 72
     1
 11
80.0956714755449
 21
76.87500000000001
 31
0.0
100
AcDbText
 73
     2
  0
TEXT
  5
404E
330
3296
100
AcDbEntity
  8
TEXT
  6
BYBLOCK
100
AcDbText
 10
68.97460120758778
 20
70.55718373305151
 30
0.0
 40
1.5
  1
Ｅ
 50
112.5000000000005
  7
GOTHIC
 72
     1
 11
68.01381315554874
 21
70.91688683153559
 31
0.0
100
AcDbText
 73
     2
  0
TEXT
  5
404F
330
3296
100
AcDbEntity
  8
TEXT
  6
BYBLOCK
100
AcDbText
 10
81.67561702873973
 20
74.76499475986655
 30
0.0
 40
1.5
  1
Ａ
 50
105.0000000000004
  7
GOTHIC
 72
     1
 11
80.76999932745115
 21
75.24702855444201
 31
0.0
100
AcDbText
 73
     2
  0
TEXT
  5
4050
330
3296
100
AcDbEntity
  8
TEXT
  6
BYBLOCK
100
AcDbText
 10
68.39269916631112
 20
72.02283144371796
 30
0.0
 40
1.5
  1
Ｓ
 50
97.49999999999971
  7
GOTHIC
 72
     1
 11
67.55774718572673
 21
72.61894820251459
 31
0.0
100
AcDbText
 73
     2
  0
TEXT
  5
4051
330
3296
100
AcDbEntity
  8
TEXT
  6
BYBLOCK
100
AcDbText
 10
81.74999999999993
 20
72.84999999999996
 30
0.0
 40
1.5
  1
５
 50
90.0
  7
GOTHIC
 72
     1
 11
80.99999999999992
 21
73.49999999999997
 31
0.0
100
AcDbText
 73
     2
  0
TEXT
  5
4052
330
3296
100
AcDbEntity
  8
TEXT
  6
BYBLOCK
100
AcDbText
 10
68.20996249720305
 20
73.58914575035861
 30
0.0
 40
1.5
  1
Ｓ
 50
82.5000000000003
  7
GOTHIC
 72
     1
 11
67.55774718572673
 21
74.38105179748531
 31
0.0
100
AcDbText
 73
     2
  0
TEXT
  5
4053
330
3296
100
AcDbEntity
  8
TEXT
  6
BYBLOCK
100
AcDbText
 10
81.31327036559619
 20
70.88270908332876
 30
0.0
 40
1.5
  1
０
 50
74.99999999999963
  7
GOTHIC
 72
     1
 11
80.76999932745115
 21
71.752971445558
 31
0.0
100
AcDbText
 73
     2
  0
TEXT
  5
4054
330
3296
100
AcDbEntity
  8
TEXT
  6
BYBLOCK
100
AcDbText
 10
68.43884440227665
 20
75.14938492143258
 30
0.0
 40
1.5
  1
Ｅ
 50
67.49999999999936
  7
GOTHIC
 72
     1
 11
68.01381315554874
 21
76.08311316846431
 31
0.0
100
AcDbText
 73
     2
  0
TEXT
  5
4055
330
3296
100
AcDbEntity
  8
TEXT
  6
BYBLOCK
100
AcDbText
 10
80.39519052838324
 20
69.14378221735083
 30
0.0
 40
1.5
  1
Ｔ
 50
60.00000000000097
  7
GOTHIC
 72
     1
 11
80.0956714755449
 21
70.12499999999993
 31
0.0
100
AcDbText
 73
     2
  0
TEXT
  5
4056
330
3296
100
AcDbEntity
  8
TEXT
  6
BYBLOCK
100
AcDbText
 10
69.06374695794643
 20
76.59722123584841
 30
0.0
 40
1.5
  1
Ｌ
 50
52.50000000000096
  7
GOTHIC
 72
     1
 11
68.8948649530341
 21
77.60913964580881
 31
0.0
100
AcDbText
 73
     2
  0
TEXT
  5
4057
330
3296
100
AcDbEntity
  8
TEXT
  6
BYBLOCK
100
AcDbText
 10
79.05832611206843
 20
67.70172439427028
 30
0.0
 40
1.5
  1
Ｎ
 50
45.00000000000057
  7
GOTHIC
 72
     1
 11
79.02297077300909
 21
68.72702922699078
 31
0.0
100
AcDbText
 73
     2
  0
LINE
  5
4058
330
3296
100
AcDbEntity
  8
CENTER
100
AcDbLine
 10
44.24999999999999
 20
73.49999999999993
 30
0.0
 11
46.74999999999999
 21
73.49999999999993
 31
0.0
  0
LINE
  5
4059
330
3296
100
AcDbEntity
  8
LINE
100
AcDbLine
 10
105.0179491924309
 20
67.63977858497283
 30
0.0
 11
108.4820508075688
 21
70.10064038170056
 31
0.0
  0
LINE
  5
405A
330
3296
100
AcDbEntity
  8
LINE
100
AcDbLine
 10
105.0179491924309
 20
79.36022141502701
 30
0.0
 11
108.4820508075688
 21
76.8993596182993
 31
0.0
  0
LINE
  5
405B
330
3296
100
AcDbEntity
  8
LINE
100
AcDbLine
 10
17.10164880763441
 20
65.99999999999993
 30
0.0
 11
17.10164880763441
 21
73.49999999999993
 31
0.0
  0
LINE
  5
405C
330
3296
100
AcDbEntity
  8
LINE
100
AcDbLine
 10
24.10164880763441
 20
65.99999999999993
 30
0.0
 11
24.10164880763441
 21
73.49999999999993
 31
0.0
  0
LINE
  5
405D
330
3296
100
AcDbEntity
  8
LINE
100
AcDbLine
 10
24.10164880763441
 20
65.99999999999993
 30
0.0
 11
17.10164880763441
 21
65.99999999999993
 31
0.0
  0
LINE
  5
405E
330
3296
100
AcDbEntity
  8
LINE
100
AcDbLine
 10
17.10164880763441
 20
72.99999999999993
 30
0.0
 11
23.75154503852955
 21
72.99999999999993
 31
0.0
  0
LINE
  5
405F
330
3296
100
AcDbEntity
  8
LINE
100
AcDbLine
 10
20.60164880763441
 20
72.99999999999993
 30
0.0
 11
20.60164880763441
 21
73.49999999999993
 31
0.0
  0
LINE
  5
4060
330
3296
100
AcDbEntity
  8
LINE
100
AcDbLine
 10
23.0513375003198
 20
74.99999999999997
 30
0.0
 11
23.97041581234551
 21
74.9999999999999
 31
0.0
  0
LINE
  5
4061
330
3296
100
AcDbEntity
  8
LINE
100
AcDbLine
 10
20.60164880763441
 20
73.99999999999993
 30
0.0
 11
20.60164880763441
 21
73.49999999999993
 31
0.0
  0
LINE
  5
4062
330
3296
100
AcDbEntity
  8
LINE
100
AcDbLine
 10
17.10164880763441
 20
73.99999999999993
 30
0.0
 11
23.75154503852952
 21
73.9999999999999
 31
0.0
  0
LINE
  5
4063
330
3296
100
AcDbEntity
  8
LINE
100
AcDbLine
 10
24.10164880763441
 20
80.9999999999999
 30
0.0
 11
17.10164880763441
 21
80.9999999999999
 31
0.0
  0
LINE
  5
4064
330
3296
100
AcDbEntity
  8
LINE
100
AcDbLine
 10
24.10164880763441
 20
80.9999999999999
 30
0.0
 11
24.10164880763441
 21
73.49999999999993
 31
0.0
  0
LINE
  5
4065
330
3296
100
AcDbEntity
  8
LINE
100
AcDbLine
 10
17.10164880763441
 20
80.9999999999999
 30
0.0
 11
17.10164880763441
 21
73.49999999999993
 31
0.0
  0
LINE
  5
4066
330
3296
100
AcDbEntity
  8
LINE
100
AcDbLine
 10
46.74999999999999
 20
73.49999999999993
 30
0.0
 11
62.75
 21
73.49999999999993
 31
0.0
  0
LINE
  5
4067
330
3296
100
AcDbEntity
  8
CENTER
100
AcDbLine
 10
62.75
 20
73.49999999999993
 30
0.0
 11
107.25
 21
73.49999999999993
 31
0.0
  0
LINE
  5
4068
330
3296
100
AcDbEntity
  8
CENTER
100
AcDbLine
 10
14.71633111563913
 20
73.49999999999993
 30
0.0
 11
26.71633111563914
 21
73.49999999999993
 31
0.0
  0
LINE
  5
4069
330
3296
100
AcDbEntity
  8
LINE
100
AcDbLine
 10
74.25
 20
80.9999999999999
 30
0.0
 11
79.25
 21
80.9999999999999
 31
0.0
  0
LINE
  5
406A
330
3296
100
AcDbEntity
  8
LINE
100
AcDbLine
 10
79.25
 20
80.9999999999999
 30
0.0
 11
105.3547131864717
 21
79.33879097904264
 31
0.0
  0
LINE
  5
406B
330
3296
100
AcDbEntity
  8
LINE
100
AcDbLine
 10
107.5793569890054
 20
78.12444408634966
 30
0.0
 11
110.25
 21
74.49999999999993
 31
0.0
  0
LINE
  5
406C
330
3296
100
AcDbEntity
  8
LINE
100
AcDbLine
 10
110.25
 20
74.49999999999993
 30
0.0
 11
110.25
 21
73.49999999999993
 31
0.0
  0
LINE
  5
406D
330
3296
100
AcDbEntity
  8
LINE
100
AcDbLine
 10
82.75
 20
73.49999999999993
 30
0.0
 11
82.74999999999998
 21
73.49999999999993
 31
0.0
  0
LINE
  5
406E
330
3296
100
AcDbEntity
  8
LINE
100
AcDbLine
 10
83.74999999999998
 20
74.49999999999993
 30
0.0
 11
106.25
 21
74.49999999999993
 31
0.0
  0
LINE
  5
406F
330
3296
100
AcDbEntity
  8
LINE
100
AcDbLine
 10
107.25
 20
73.49999999999993
 30
0.0
 11
107.25
 21
73.49999999999993
 31
0.0
  0
ARC
  5
4070
330
3296
100
AcDbEntity
  8
LINE
100
AcDbCircle
 10
83.74999999999998
 20
73.49999999999993
 30
0.0
 40
1.0
100
AcDbArc
 50
90.0
 51
180.0
  0
ARC
  5
4071
330
3296
100
AcDbEntity
  8
LINE
100
AcDbCircle
 10
106.25
 20
73.49999999999993
 30
0.0
 40
1.0
100
AcDbArc
 50
0.0
 51
90.0
  0
LINE
  5
4072
330
3296
100
AcDbEntity
  8
LINE
100
AcDbLine
 10
74.25
 20
80.9999999999999
 30
0.0
 11
61.49807680927191
 21
80.9999999999999
 31
0.0
  0
ARC
  5
4073
330
3296
100
AcDbEntity
  8
LINE
100
AcDbCircle
 10
61.49807680927191
 20
55.99999999999994
 30
0.0
 40
25.0
100
AcDbArc
 50
90.0
 51
130.5358021113171
  0
LINE
  5
4074
330
3296
100
AcDbEntity
  8
LINE
100
AcDbLine
 10
45.25
 20
74.9999999999999
 30
0.0
 11
46.74999999999999
 21
73.49999999999993
 31
0.0
  0
LINE
  5
4075
330
3296
100
AcDbEntity
  8
LINE
100
AcDbLine
 10
65.75
 20
73.49999999999993
 30
0.0
 11
65.75
 21
73.49999999999993
 31
0.0
  0
LINE
  5
4076
330
3296
100
AcDbEntity
  8
LINE
100
AcDbLine
 10
65.25
 20
73.99999999999993
 30
0.0
 11
63.25
 21
73.99999999999993
 31
0.0
  0
LINE
  5
4077
330
3296
100
AcDbEntity
  8
LINE
100
AcDbLine
 10
62.75
 20
73.49999999999993
 30
0.0
 11
62.75
 21
73.49999999999993
 31
0.0
  0
ARC
  5
4078
330
3296
100
AcDbEntity
  8
LINE
100
AcDbCircle
 10
63.25
 20
73.49999999999993
 30
0.0
 40
0.5
100
AcDbArc
 50
90.0
 51
180.0
  0
ARC
  5
4079
330
3296
100
AcDbEntity
  8
LINE
100
AcDbCircle
 10
65.25
 20
73.49999999999993
 30
0.0
 40
0.5
100
AcDbArc
 50
0.0
 51
90.0
  0
ARC
  5
407A
330
3296
100
AcDbEntity
  8
LINE
100
AcDbCircle
 10
105.1641894769453
 20
76.3448469722001
 30
0.0
 40
3.0
100
AcDbArc
 50
36.38435181583583
 51
86.35881474209861
  0
ARC
  5
407B
330
3296
100
AcDbEntity
  8
LINE
100
AcDbCircle
 10
105.1641894769453
 20
70.65515302779977
 30
0.0
 40
3.0
100
AcDbArc
 50
273.6411852579014
 51
323.6156481841641
  0
ARC
  5
407C
330
3296
100
AcDbEntity
  8
LINE
100
AcDbCircle
 10
65.25
 20
73.49999999999993
 30
0.0
 40
0.5
100
AcDbArc
 50
270.0
 51
0.0
  0
ARC
  5
407D
330
3296
100
AcDbEntity
  8
LINE
100
AcDbCircle
 10
63.25
 20
73.49999999999993
 30
0.0
 40
0.5
100
AcDbArc
 50
180.0
 51
270.0
  0
LINE
  5
407E
330
3296
100
AcDbEntity
  8
LINE
100
AcDbLine
 10
62.75
 20
73.49999999999993
 30
0.0
 11
62.75
 21
73.49999999999993
 31
0.0
  0
LINE
  5
407F
330
3296
100
AcDbEntity
  8
LINE
100
AcDbLine
 10
65.25
 20
72.99999999999993
 30
0.0
 11
63.25
 21
72.99999999999993
 31
0.0
  0
LINE
  5
4080
330
3296
100
AcDbEntity
  8
LINE
100
AcDbLine
 10
65.75
 20
73.49999999999993
 30
0.0
 11
65.75
 21
73.49999999999993
 31
0.0
  0
LINE
  5
4081
330
3296
100
AcDbEntity
  8
LINE
100
AcDbLine
 10
45.25
 20
71.99999999999993
 30
0.0
 11
46.74999999999999
 21
73.49999999999993
 31
0.0
  0
ARC
  5
4082
330
3296
100
AcDbEntity
  8
LINE
100
AcDbCircle
 10
61.49807680927191
 20
90.99999999999992
 30
0.0
 40
25.0
100
AcDbArc
 50
229.4641978886828
 51
270.0
  0
LINE
  5
4083
330
3296
100
AcDbEntity
  8
LINE
100
AcDbLine
 10
74.25
 20
65.99999999999993
 30
0.0
 11
61.49807680927191
 21
65.99999999999993
 31
0.0
  0
ARC
  5
4084
330
3296
100
AcDbEntity
  8
LINE
100
AcDbCircle
 10
106.25
 20
73.49999999999993
 30
0.0
 40
1.0
100
AcDbArc
 50
270.0
 51
0.0
  0
ARC
  5
4085
330
3296
100
AcDbEntity
  8
LINE
100
AcDbCircle
 10
83.74999999999998
 20
73.49999999999993
 30
0.0
 40
1.0
100
AcDbArc
 50
180.0
 51
270.0
  0
LINE
  5
4086
330
3296
100
AcDbEntity
  8
LINE
100
AcDbLine
 10
107.25
 20
73.49999999999993
 30
0.0
 11
107.25
 21
73.49999999999993
 31
0.0
  0
LINE
  5
4087
330
3296
100
AcDbEntity
  8
LINE
100
AcDbLine
 10
83.74999999999998
 20
72.4999999999999
 30
0.0
 11
106.25
 21
72.4999999999999
 31
0.0
  0
LINE
  5
4088
330
3296
100
AcDbEntity
  8
LINE
100
AcDbLine
 10
82.75
 20
73.49999999999993
 30
0.0
 11
82.74999999999998
 21
73.49999999999993
 31
0.0
  0
LINE
  5
4089
330
3296
100
AcDbEntity
  8
LINE
100
AcDbLine
 10
110.25
 20
72.4999999999999
 30
0.0
 11
110.25
 21
73.49999999999993
 31
0.0
  0
LINE
  5
408A
330
3296
100
AcDbEntity
  8
LINE
100
AcDbLine
 10
107.5793569890054
 20
68.8755559136502
 30
0.0
 11
110.25
 21
72.4999999999999
 31
0.0
  0
LINE
  5
408B
330
3296
100
AcDbEntity
  8
LINE
100
AcDbLine
 10
79.25
 20
65.99999999999993
 30
0.0
 11
105.3547131864717
 21
67.66120902095721
 31
0.0
  0
LINE
  5
408C
330
3296
100
AcDbEntity
  8
LINE
100
AcDbLine
 10
74.25
 20
65.99999999999993
 30
0.0
 11
79.25
 21
65.99999999999993
 31
0.0
  0
CIRCLE
  5
408D
330
3296
100
AcDbEntity
  8
LINE
100
AcDbCircle
 10
74.25
 20
73.49999999999993
 30
0.0
 40
2.049999999999998
  0
CIRCLE
  5
408E
330
3296
100
AcDbEntity
  8
LINE
100
AcDbCircle
 10
74.25
 20
73.49999999999993
 30
0.0
 40
5.0
  0
ARC
  5
408F
330
3296
100
AcDbEntity
  8
LINE
100
AcDbCircle
 10
74.25
 20
73.49999999999993
 30
0.0
 40
8.5
100
AcDbArc
 50
118.072486935853
 51
180.0
  0
ARC
  5
4090
330
3296
100
AcDbEntity
  8
LINE
100
AcDbCircle
 10
74.25
 20
73.49999999999993
 30
0.0
 40
9.0
100
AcDbArc
 50
123.55730976192
 51
176.8164916468274
  0
ARC
  5
4091
330
3296
100
AcDbEntity
  8
LINE
100
AcDbCircle
 10
74.25
 20
73.49999999999993
 30
0.0
 40
9.0
100
AcDbArc
 50
303.55730976192
 51
354.6317953008377
  0
ARC
  5
4092
330
3296
100
AcDbEntity
  8
LINE
100
AcDbCircle
 10
74.25
 20
73.49999999999993
 30
0.0
 40
8.5
100
AcDbArc
 50
298.072486935853
 51
0.0
  0
LINE
  5
4093
330
3296
100
AcDbEntity
  8
CENTER
100
AcDbLine
 10
74.25
 20
82.74999999999993
 30
0.0
 11
74.25
 21
63.98732605523257
 31
0.0
  0
LINE
  5
4094
330
3296
100
AcDbEntity
  8
CENTER
100
AcDbLine
 10
110.25
 20
73.49999999999993
 30
0.0
 11
111.7499999999999
 21
73.49999999999993
 31
0.0
  0
LINE
  5
4095
330
3296
100
AcDbEntity
  8
LINE
100
AcDbLine
 10
107.25
 20
73.49999999999993
 30
0.0
 11
110.25
 21
73.49999999999993
 31
0.0
  0
DIMENSION
  5
4096
330
3296
100
AcDbEntity
  8
DIMENSION
100
AcDbDimension
  2
*D1
 10
74.24999999999998
 20
88.74999999999991
 30
0.0
 11
59.74999999999989
 21
89.99999999999991
 31
0.0
  3
ISO-25
100
AcDbAlignedDimension
 13
45.24999999999979
 23
74.99999999999978
 33
0.0
 14
74.24999999999998
 24
82.74999999999989
 34
0.0
100
AcDbRotatedDimension
1001
ACAD
1000
DSTYLE
1002
{
1070
    75
1070
     0
1002
}
  0
LINE
  5
4097
330
3296
100
AcDbEntity
  8
DIMENSION
 62
     3
100
AcDbLine
 10
23.44548383118997
 20
65.99999999999993
 30
0.0
 11
22.88703535065149
 21
59.61690465904759
 31
0.0
  0
LINE
  5
4098
330
3296
100
AcDbEntity
  8
DIMENSION
 62
     3
100
AcDbLine
 10
24.10164880763441
 20
65.99999999999993
 30
0.0
 11
24.10164880763439
 21
59.56387349024634
 31
0.0
  0
ARC
  5
4099
330
3296
100
AcDbEntity
  8
DIMENSION
 62
     3
100
AcDbCircle
 10
24.10164880763441
 20
73.49999999999993
 30
0.0
 40
12.43612650975358
100
AcDbArc
 50
255.7831064707363
 51
260.391553235368
  0
ARC
  5
409A
330
3296
100
AcDbEntity
  8
DIMENSION
 62
     3
100
AcDbCircle
 10
24.10164880763441
 20
73.49999999999993
 30
0.0
 40
12.43612650975358
100
AcDbArc
 50
274.608446764632
 51
279.2168935292634
  0
ARC
  5
409B
330
3296
100
AcDbEntity
  8
DIMENSION
 62
     3
100
AcDbCircle
 10
24.10164880763441
 20
73.49999999999993
 30
0.0
 40
12.43612650975358
100
AcDbArc
 50
265.0000000000003
 51
270.0
  0
INSERT
  5
409C
330
3296
100
AcDbEntity
  8
DIMENSION
 62
     3
100
AcDbBlockReference
  2
_OPEN30
 10
23.01776896477298
 20
61.11119670618521
 30
0.0
 50
352.6957766176844
  0
INSERT
  5
409D
330
3296
100
AcDbEntity
  8
DIMENSION
 62
     3
100
AcDbBlockReference
  2
_OPEN30
 10
24.10164880763439
 20
61.06387349024632
 30
0.0
 50
182.3042233823163
  0
INSERT
  5
409E
330
3296
100
AcDbEntity
  8
0
100
AcDbBlockReference
  2
*U22
 10
0.0
 20
0.0
 30
0.0
  0
ARC
  5
409F
330
3296
100
AcDbEntity
  8
LINE
100
AcDbCircle
 10
61.52666451654898
 20
246.3365751492076
 30
0.0
 40
200.0
100
AcDbArc
 50
265.3319164131624
 51
270.4937053589302
  0
LINE
  5
40A0
330
3296
100
AcDbEntity
  8
LINE
100
AcDbLine
 10
63.25
 20
47.0
 30
0.0
 11
63.25
 21
46.34399999999998
 31
0.0
  0
DIMENSION
  5
40A1
330
3296
100
AcDbEntity
  8
DIMENSION
100
AcDbDimension
  2
*D12
 10
39.75
 20
42.00000000000001
 30
0.0
 11
38.5
 21
44.50000000000001
 31
0.0
  3
ISO-25
100
AcDbAlignedDimension
 13
45.25000000000001
 23
47.0
 33
0.0
 14
57.18304236144312
 24
42.00000000000001
 34
0.0
 50
90.0
100
AcDbRotatedDimension
  0
ARC
  5
40A2
330
3296
100
AcDbEntity
  8
LINE
100
AcDbCircle
 10
57.18304236144328
 20
62.00000000000001
 30
0.0
 40
20.0
100
AcDbArc
 50
233.3695023238318
 51
270.0
  0
LINE
  5
40A3
330
3296
100
AcDbEntity
  8
LINE
100
AcDbLine
 10
45.25000000000001
 20
47.0
 30
0.0
 11
45.25000000000001
 21
45.95
 31
0.0
  0
TEXT
  5
40A4
330
3296
100
AcDbEntity
  8
DIMENSION
100
AcDbText
 10
57.20327782333436
 20
38.73031373738649
 30
0.0
 40
1.5
  1
R2
  7
GOTHIC
 11
57.20327782333436
 21
39.48031373738649
 31
0.0
100
AcDbText
 73
     2
  0
POLYLINE
  5
40A5
330
3296
100
AcDbEntity
  8
DIMENSION
100
AcDb2dPolyline
 66
     1
 10
0.0
 20
0.0
 30
0.0
1001
ACAD
1000
DSTYLE
1002
{
1070
   147
1040
0.5
1070
    77
1070
     1
1002
}
  0
VERTEX
  5
40A6
330
40A5
100
AcDbEntity
  8
DIMENSION
100
AcDbVertex
100
AcDb2dVertex
 10
62.04722377918983
 20
40.63042597246172
 30
0.0
  0
VERTEX
  5
40A7
330
40A5
100
AcDbEntity
  8
DIMENSION
100
AcDbVertex
100
AcDb2dVertex
 10
60.25
 20
38.25000000000001
 30
0.0
  0
VERTEX
  5
40A8
330
40A5
100
AcDbEntity
  8
DIMENSION
100
AcDbVertex
100
AcDb2dVertex
 10
56.5334121647357
 20
38.25000000000001
 30
0.0
  0
SEQEND
  5
40A9
330
40A5
100
AcDbEntity
  8
DIMENSION
  0
INSERT
  5
40AA
330
3296
100
AcDbEntity
  8
DIMENSION
100
AcDbBlockReference
  2
_OPEN30
 10
62.64977504298712
 20
41.42850615295503
 30
0.0
 50
52.94716219181799
1001
ACAD
1000
DSTYLE
1002
{
1070
   147
1040
0.5
1070
    77
1070
     1
1002
}
  0
DIMENSION
  5
40AB
330
3296
100
AcDbEntity
  8
DIMENSION
100
AcDbDimension
  2
*D14
 10
119.25
 20
40.0
 30
0.0
 11
117.3591370558374
 21
43.5
 31
0.0
  3
ISO-25
100
AcDbAlignedDimension
 13
108.9271243444676
 23
47.0
 33
0.0
 14
108.9271243444676
 24
40.0
 34
0.0
 50
90.0
100
AcDbRotatedDimension
1001
ACAD
1000
DSTYLE
1002
{
1070
   146
1040
0.8
1070
    47
1040
0.0
1070
    48
1040
0.1
1070
   147
1040
0.5
1070
    72
1070
     0
1070
    71
1070
     1
1002
}
  0
DIMENSION
  5
40AC
330
3296
100
AcDbEntity
  8
DIMENSION
100
AcDbDimension
  2
*D24
 10
74.25
 20
35.24999999999999
 30
0.0
 11
68.75
 21
37.12499999999999
 31
0.0
 70
    32
  3
ISO-25
100
AcDbAlignedDimension
 13
63.25
 23
40.0
 33
0.0
 14
74.25
 24
38.50483583895277
 34
0.0
100
AcDbRotatedDimension
1001
ACAD
1000
DSTYLE
1002
{
1070
   287
1070
     3
1070
   287
1070
     3
1070
   279
1070
     0
1002
}
  0
LINE
  5
40AD
330
3296
100
AcDbEntity
  8
CENTER
100
AcDbLine
 10
74.25
 20
48.34102768272578
 30
0.0
 11
74.25
 21
38.50483583895277
 31
0.0
  0
LINE
  5
40AE
330
3296
100
AcDbEntity
  8
CENTER
100
AcDbLine
 10
47.75399037283533
 20
43.5
 30
0.0
 11
69.27506281446692
 21
43.5
 31
0.0
  0
ARC
  5
40AF
330
3296
100
AcDbEntity
  8
LINE
100
AcDbCircle
 10
108.9271243444676
 20
42.0
 30
0.0
 40
2.0
100
AcDbArc
 50
270.0
 51
311.409622109271
  0
LINE
  5
40B0
330
3296
100
AcDbEntity
  8
LINE
100
AcDbLine
 10
106.75
 20
41.0
 30
0.0
 11
108.4820508075688
 21
40.0
 31
0.0
  0
LINE
  5
40B1
330
3296
100
AcDbEntity
  8
LINE
100
AcDbLine
 10
106.75
 20
41.0
 30
0.0
 11
105.0179491924309
 21
40.0
 31
0.0
  0
LINE
  5
40B2
330
3296
100
AcDbEntity
  8
LINE
100
AcDbLine
 10
106.75
 20
46.0
 30
0.0
 11
105.0179491924309
 21
47.0
 31
0.0
  0
LINE
  5
40B3
330
3296
100
AcDbEntity
  8
LINE
100
AcDbLine
 10
106.75
 20
46.0
 30
0.0
 11
108.4820508075688
 21
47.0
 31
0.0
  0
ARC
  5
40B4
330
3296
100
AcDbEntity
  8
LINE
100
AcDbCircle
 10
108.9271243444676
 20
45.0
 30
0.0
 40
2.0
100
AcDbArc
 50
48.59037789072903
 51
90.0
  0
ARC
  5
40B5
330
3296
100
AcDbEntity
  8
LINE
100
AcDbCircle
 10
61.25
 20
40.0
 30
0.0
 40
2.0
100
AcDbArc
 50
0.0
 51
90.0
  0
LINE
  5
40B6
330
3296
100
AcDbEntity
  8
LINE
100
AcDbLine
 10
57.18304236144319
 20
42.00000000000001
 30
0.0
 11
61.25
 21
42.0
 31
0.0
  0
LINE
  5
40B7
330
3296
100
AcDbEntity
  8
LINE
100
AcDbLine
 10
69.27506281446689
 20
43.5
 30
0.0
 11
79.25
 21
43.5
 31
0.0
  0
LINE
  5
40B8
330
3296
100
AcDbEntity
  8
CENTER
100
AcDbLine
 10
79.25
 20
43.5
 30
0.0
 11
111.7499999999999
 21
43.5
 31
0.0
  0
LINE
  5
40B9
330
3296
100
AcDbEntity
  8
LINE
100
AcDbLine
 10
63.25
 20
40.0
 30
0.0
 11
63.25
 21
40.0
 31
0.0
  0
LINE
  5
40BA
330
3296
100
AcDbEntity
  8
LINE
100
AcDbLine
 10
79.25
 20
47.0
 30
0.0
 11
79.25
 21
43.5
 31
0.0
  0
LINE
  5
40BB
330
3296
100
AcDbEntity
  8
LINE
100
AcDbLine
 10
78.25
 20
47.0
 30
0.0
 11
78.25
 21
43.5
 31
0.0
  0
LINE
  5
40BC
330
3296
100
AcDbEntity
  8
LINE
100
AcDbLine
 10
70.24999999999998
 20
43.5
 30
0.0
 11
70.24999999999998
 21
40.0
 31
0.0
  0
LINE
  5
40BD
330
3296
100
AcDbEntity
  8
LINE
100
AcDbLine
 10
69.27506281446689
 20
43.5
 30
0.0
 11
69.27506281446689
 21
40.0
 31
0.0
  0
LINE
  5
40BE
330
3296
100
AcDbEntity
  8
LINE
100
AcDbLine
 10
110.25
 20
46.5
 30
0.0
 11
110.25
 21
40.49999999999999
 31
0.0
  0
LINE
  5
40BF
330
3296
100
AcDbEntity
  8
LINE
100
AcDbLine
 10
63.25
 20
40.0
 30
0.0
 11
108.9271243444676
 21
40.0
 31
0.0
  0
LINE
  5
40C0
330
3296
100
AcDbEntity
  8
LINE
100
AcDbLine
 10
45.25000000000001
 20
47.0
 30
0.0
 11
108.9271243444676
 21
47.0
 31
0.0
  0
DIMENSION
  5
40C1
330
3296
100
AcDbEntity
  8
DIMENSION
100
AcDbDimension
  2
*D17
 10
75.12979013620719
 20
75.35161262585683
 30
0.0
 11
66.0
 21
61.5
 31
0.0
 70
   131
  3
ISO-25
100
AcDbDiametricDimension
 15
73.37020986379281
 25
71.64838737414303
 35
0.0
 40
0.0
1001
ACAD
1000
DSTYLE
1002
{
1070
     3
1000
φ<>
1070
   288
1070
     1
1002
}
  0
VIEWPORT
  5
40C4
330
3292
100
AcDbEntity
 67
     1
  8
0
100
AcDbViewport
 10
145.3197631835936
 20
101.8222458362579
 30
0.0
 40
391.2734030671862
 41
222.174172088623
 68
     1
 69
     1
1001
ACAD
1000
MVIEW
1002
{
1070
    16
1010
0.0
1020
0.0
1030
0.0
1010
0.0
1020
0.0
1030
1.0
1040
0.0
1040
222.174172088623
1040
145.3197631835936
1040
101.8222458362579
1040
50.0
1040
0.0
1040
0.0
1070
     0
1070
  1000
1070
     1
1070
     1
1070
     0
1070
     0
1070
     0
1070
     0
1040
0.0
1040
0.0
1040
0.0
1040
10.0
1040
10.0
1040
10.0
1040
10.0
1070
     0
1002
{
1002
}
1002
}
  0
ENDSEC
  0
SECTION
  2
OBJECTS
  0
DICTIONARY
  5
3284
330
0
100
AcDbDictionary
  3
ACAD_GROUP
350
3285
  3
ACAD_LAYOUT
350
3291
  3
ACAD_MLINESTYLE
350
328E
  3
ACAD_PLOTSETTINGS
350
3290
1001
ACAD
1000
TREAT_AS_HARD
1070
     0
1000
TREAT_AS_HARD
1070
     0
  0
DICTIONARY
  5
40CB
330
3296
100
AcDbDictionary
  3
ACAD_LAYOUTSELFREF
350
40F1
1001
ACAD
1000
TREAT_AS_HARD
1070
     0
  0
DICTIONARY
  5
40C9
330
3292
100
AcDbDictionary
  3
ACAD_LAYOUTSELFREF
350
40F0
1001
ACAD
1000
TREAT_AS_HARD
1070
     0
  0
DICTIONARY
  5
3285
102
{ACAD_REACTORS
330
3284
102
}
330
3284
100
AcDbDictionary
1001
ACAD
1000
TREAT_AS_HARD
1070
     0
1000
TREAT_AS_HARD
1070
     0
  0
DICTIONARY
  5
3291
102
{ACAD_REACTORS
330
3284
102
}
330
3284
100
AcDbDictionary
1001
ACAD
1000
TREAT_AS_HARD
1070
     0
1000
TREAT_AS_HARD
1070
     0
  0
DICTIONARY
  5
328E
102
{ACAD_REACTORS
330
3284
102
}
330
3284
100
AcDbDictionary
  3
STANDARD
350
328F
1001
ACAD
1000
TREAT_AS_HARD
1070
     0
1000
TREAT_AS_HARD
1070
     0
  0
DICTIONARY
  5
3290
102
{ACAD_REACTORS
330
3284
102
}
330
3284
100
AcDbDictionary
1001
ACAD
1000
TREAT_AS_HARD
1070
     0
1000
TREAT_AS_HARD
1070
     0
  0
XRECORD
  5
40F1
102
{ACAD_REACTORS
330
40CB
102
}
330
40CB
100
AcDbXrecord
340
3296
  0
XRECORD
  5
40F0
102
{ACAD_REACTORS
330
40C9
102
}
330
40C9
100
AcDbXrecord
340
3292
  0
MLINESTYLE
  5
328F
102
{ACAD_REACTORS
330
328E
102
}
330
328E
100
AcDbMlineStyle
  2
STANDARD
 70
     0
  3

 62
   256
 51
90.0
 52
90.0
 71
     2
 49
0.5
 62
   256
  6
BYLAYER
 49
-0.5
 62
   256
  6
BYLAYER
  0
ENDSEC
  0
EOF
