  0
SECTION
  2
HEADER
  9
$ACADVER
  1
AC1012
  9
$DWGCODEPAGE
  3
dos932
  9
$INSBASE
 10
0.0
 20
0.0
 30
0.0
  9
$EXTMIN
 10
7.099159594740683
 20
29.99748257919853
 30
-0.0015258207003583
  9
$EXTMAX
 10
131.2608035483406
 20
93.79600548045244
 30
0.0000000349246037
  9
$LIMMIN
 10
0.0
 20
0.0
  9
$LIMMAX
 10
148.5
 20
105.0
  9
$ORTHOMODE
 70
     0
  9
$REGENMODE
 70
     1
  9
$FILLMODE
 70
     1
  9
$QTEXTMODE
 70
     0
  9
$MIRRTEXT
 70
     0
  9
$DRAGMODE
 70
     2
  9
$LTSCALE
 40
0.25
  9
$OSMODE
 70
    37
  9
$ATTMODE
 70
     1
  9
$TEXTSIZE
 40
1.5
  9
$TRACEWID
 40
1.0
  9
$TEXTSTYLE
  7
GOTHIC
  9
$CLAYER
  8
0
  9
$CELTYPE
  6
BYLAYER
  9
$CECOLOR
 62
   256
  9
$CELTSCALE
 40
1.0
  9
$DELOBJ
 70
     1
  9
$DISPSILH
 70
     0
  9
$DIMSCALE
 40
1.0
  9
$DIMASZ
 40
1.0
  9
$DIMEXO
 40
0.0
  9
$DIMDLI
 40
1.5
  9
$DIMRND
 40
0.0
  9
$DIMDLE
 40
0.0
  9
$DIMEXE
 40
1.5
  9
$DIMTP
 40
0.0
  9
$DIMTM
 40
0.0
  9
$DIMTXT
 40
1.5
  9
$DIMCEN
 40
0.0
  9
$DIMTSZ
 40
0.0
  9
$DIMTOL
 70
     0
  9
$DIMLIM
 70
     0
  9
$DIMTIH
 70
     0
  9
$DIMTOH
 70
     0
  9
$DIMSE1
 70
     0
  9
$DIMSE2
 70
     0
  9
$DIMTAD
 70
     1
  9
$DIMZIN
 70
     8
  9
$DIMBLK
  1
OPEN30
  9
$DIMASO
 70
     1
  9
$DIMSHO
 70
     1
  9
$DIMPOST
  1

  9
$DIMAPOST
  1

  9
$DIMALT
 70
     0
  9
$DIMALTD
 70
     3
  9
$DIMALTF
 40
0.03937007874016
  9
$DIMLFAC
 40
1.0
  9
$DIMTOFL
 70
     1
  9
$DIMTVP
 40
0.0
  9
$DIMTIX
 70
     0
  9
$DIMSOXD
 70
     0
  9
$DIMSAH
 70
     0
  9
$DIMBLK1
  1

  9
$DIMBLK2
  1

  9
$DIMSTYLE
  2
VESSEL_ENGINEERING_ORIGIN0
  9
$DIMCLRD
 70
   256
  9
$DIMCLRE
 70
   256
  9
$DIMCLRT
 70
   256
  9
$DIMTFAC
 40
1.0
  9
$DIMGAP
 40
0.5
  9
$DIMJUST
 70
     0
  9
$DIMSD1
 70
     0
  9
$DIMSD2
 70
     0
  9
$DIMTOLJ
 70
     1
  9
$DIMTZIN
 70
     0
  9
$DIMALTZ
 70
     0
  9
$DIMALTTZ
 70
     0
  9
$DIMFIT
 70
     3
  9
$DIMUPT
 70
     0
  9
$DIMUNIT
 70
     2
  9
$DIMDEC
 70
     4
  9
$DIMTDEC
 70
     4
  9
$DIMALTU
 70
     2
  9
$DIMALTTD
 70
     2
  9
$DIMTXSTY
  7
STANDARD
  9
$DIMAUNIT
 70
     0
  9
$LUNITS
 70
     2
  9
$LUPREC
 70
     4
  9
$SKETCHINC
 40
1.0
  9
$FILLETRAD
 40
0.0
  9
$AUNITS
 70
     0
  9
$AUPREC
 70
     0
  9
$MENU
  1
.
  9
$ELEVATION
 40
0.0
  9
$PELEVATION
 40
0.0
  9
$THICKNESS
 40
0.0
  9
$LIMCHECK
 70
     0
  9
$BLIPMODE
 70
     1
  9
$CHAMFERA
 40
0.0
  9
$CHAMFERB
 40
0.0
  9
$CHAMFERC
 40
0.0
  9
$CHAMFERD
 40
0.0
  9
$SKPOLY
 70
     0
  9
$TDCREATE
 40
2452943.646856192
  9
$TDUPDATE
 40
2453515.489235150
  9
$TDINDWG
 40
0.3106107639
  9
$TDUSRTIMER
 40
0.3106106481
  9
$USRTIMER
 70
     1
  9
$ANGBASE
 50
0.0
  9
$ANGDIR
 70
     0
  9
$PDMODE
 70
     0
  9
$PDSIZE
 40
0.0
  9
$PLINEWID
 40
0.0
  9
$COORDS
 70
     1
  9
$SPLFRAME
 70
     0
  9
$SPLINETYPE
 70
     6
  9
$SPLINESEGS
 70
     8
  9
$ATTDIA
 70
     0
  9
$ATTREQ
 70
     1
  9
$HANDLING
 70
-16383
  9
$HANDSEED
  5
26C0
  9
$SURFTAB1
 70
     6
  9
$SURFTAB2
 70
     6
  9
$SURFTYPE
 70
     6
  9
$SURFU
 70
     6
  9
$SURFV
 70
     6
  9
$UCSNAME
  2

  9
$UCSORG
 10
0.0
 20
0.0
 30
0.0
  9
$UCSXDIR
 10
1.0
 20
0.0
 30
0.0
  9
$UCSYDIR
 10
0.0
 20
1.0
 30
0.0
  9
$PUCSNAME
  2

  9
$PUCSORG
 10
0.0
 20
0.0
 30
0.0
  9
$PUCSXDIR
 10
1.0
 20
0.0
 30
0.0
  9
$PUCSYDIR
 10
0.0
 20
1.0
 30
0.0
  9
$USERI1
 70
     0
  9
$USERI2
 70
     0
  9
$USERI3
 70
     0
  9
$USERI4
 70
     0
  9
$USERI5
 70
     0
  9
$USERR1
 40
0.0
  9
$USERR2
 40
0.0
  9
$USERR3
 40
0.0
  9
$USERR4
 40
0.0
  9
$USERR5
 40
0.0
  9
$WORLDVIEW
 70
     1
  9
$SHADEDGE
 70
     3
  9
$SHADEDIF
 70
    70
  9
$TILEMODE
 70
     1
  9
$MAXACTVP
 70
    64
  9
$PINSBASE
 10
0.0
 20
0.0
 30
0.0
  9
$PLIMCHECK
 70
     0
  9
$PEXTMIN
 10
1.000000000000000E+20
 20
1.000000000000000E+20
 30
1.000000000000000E+20
  9
$PEXTMAX
 10
-1.000000000000000E+20
 20
-1.000000000000000E+20
 30
-1.000000000000000E+20
  9
$PLIMMIN
 10
-3.17498779296875
 20
-3.174999952316283
  9
$PLIMMAX
 10
293.8145141601562
 20
206.819491624832
  9
$UNITMODE
 70
     0
  9
$VISRETAIN
 70
     1
  9
$PLINEGEN
 70
     0
  9
$PSLTSCALE
 70
     0
  9
$TREEDEPTH
 70
  3020
  9
$PICKSTYLE
 70
     3
  9
$CMLSTYLE
  2
STANDARD
  9
$CMLJUST
 70
     0
  9
$CMLSCALE
 40
1.0
  9
$SAVEIMAGES
 70
     1
  0
ENDSEC
  0
SECTION
  2
CLASSES
  0
CLASS
  1
ACDBDICTIONARYWDFLT
  2
AcDbDictionaryWithDefault
  3
AutoCAD 2000
 90
    32768
280
     0
281
     0
  0
CLASS
  1
ACDBPLACEHOLDER
  2
AcDbPlaceHolder
  3
AutoCAD 2000
 90
    32768
280
     0
281
     0
  0
CLASS
  1
LAYOUT
  2
AcDbLayout
  3
AutoCAD 2000
 90
    32768
280
     0
281
     0
  0
CLASS
  1
DICTIONARYVAR
  2
AcDbDictionaryVar
  3
AutoCAD 2000
 90
    32768
280
     0
281
     0
  0
CLASS
  1
LONG_TRANSACTION
  2
AcDbLongTransaction
  3
AutoCAD 2000
 90
    32768
280
     0
281
     0
  0
CLASS
  1
LWPOLYLINE
  2
AcDbPolyline
  3
AutoCAD 2000
 90
    32768
280
     0
281
     1
  0
CLASS
  1
HATCH
  2
AcDbHatch
  3
AutoCAD 2000
 90
    32768
280
     0
281
     1
  0
CLASS
  1
XRECORD
  2
AcDbXrecord
  3
AutoCAD 2000
 90
    32768
280
     0
281
     0
  0
CLASS
  1
LONG_TRANSACTION
  2
AcDbLongTransaction
  3
AutoCAD 2000
 90
    32768
280
     0
281
     0
  0
CLASS
  1
LWPOLYLINE
  2
AcDbPolyline
  3
AutoCAD 2000
 90
    32768
280
     0
281
     1
  0
CLASS
  1
HATCH
  2
AcDbHatch
  3
AutoCAD 2000
 90
    32768
280
     0
281
     1
  0
CLASS
  1
XRECORD
  2
AcDbXrecord
  3
AutoCAD 2000
 90
    32768
280
     0
281
     0
  0
ENDSEC
  0
SECTION
  2
TABLES
  0
TABLE
  2
VPORT
  5
1F18
330
0
100
AcDbSymbolTable
 70
     2
  0
VPORT
  5
26BD
330
1F18
100
AcDbSymbolTableRecord
100
AcDbViewportTableRecord
  2
*ACTIVE
 70
     0
 10
0.0
 20
0.0
 11
1.0
 21
1.0
 12
69.17998157154068
 22
61.89674402982548
 13
0.0
 23
0.0
 14
1.5
 24
1.5
 15
1.5
 25
1.5
 16
0.0
 26
0.0
 36
1.0
 17
0.0
 27
0.0
 37
0.0
 40
82.63379564615357
 41
1.510025062656641
 42
50.0
 43
0.0
 44
0.0
 50
0.0
 51
0.0
 71
     0
 72
 20000
 73
     1
 74
     3
 75
     0
 76
     0
 77
     0
 78
     0
  0
ENDTAB
  0
TABLE
  2
LTYPE
  5
1F15
330
0
100
AcDbSymbolTable
 70
     2
  0
LTYPE
  5
1F23
330
1F15
100
AcDbSymbolTableRecord
100
AcDbLinetypeTableRecord
  2
BYBLOCK
 70
     0
  3

 72
    65
 73
     0
 40
0.0
  0
LTYPE
  5
1F24
330
1F15
100
AcDbSymbolTableRecord
100
AcDbLinetypeTableRecord
  2
BYLAYER
 70
     0
  3

 72
    65
 73
     0
 40
0.0
  0
LTYPE
  5
1F25
330
1F15
100
AcDbSymbolTableRecord
100
AcDbLinetypeTableRecord
  2
CONTINUOUS
 70
     0
  3
Solid line
 72
    65
 73
     0
 40
0.0
  0
LTYPE
  5
1F34
330
1F15
100
AcDbSymbolTableRecord
100
AcDbLinetypeTableRecord
  2
CENTER2
 70
     0
  3
Center (.5x) ___ _ ___ _ ___ _ ___ _ ___ _ ___
 72
    65
 73
     4
 40
28.57499999999999
 49
19.05
 74
     0
 49
-3.174999999999998
 74
     0
 49
3.174999999999998
 74
     0
 49
-3.174999999999998
 74
     0
  0
ENDTAB
  0
TABLE
  2
LAYER
  5
1F12
330
0
100
AcDbSymbolTable
 70
     6
  0
LAYER
  5
1F20
330
1F12
100
AcDbSymbolTableRecord
100
AcDbLayerTableRecord
  2
0
 70
     0
 62
     7
  6
CONTINUOUS
  0
LAYER
  5
1F3F
330
1F12
100
AcDbSymbolTableRecord
100
AcDbLayerTableRecord
  2
CENTER
 70
     0
 62
     4
  6
CENTER2
  0
LAYER
  5
1F40
330
1F12
100
AcDbSymbolTableRecord
100
AcDbLayerTableRecord
  2
DIMENSION
 70
     0
 62
     3
  6
CONTINUOUS
  0
LAYER
  5
1F42
330
1F12
100
AcDbSymbolTableRecord
100
AcDbLayerTableRecord
  2
LINE
 70
     0
 62
     2
  6
CONTINUOUS
  0
LAYER
  5
1F43
330
1F12
100
AcDbSymbolTableRecord
100
AcDbLayerTableRecord
  2
TEXT
 70
     0
 62
     3
  6
CONTINUOUS
  0
LAYER
  5
1F44
330
1F12
100
AcDbSymbolTableRecord
100
AcDbLayerTableRecord
  2
DEFPOINTS
 70
     0
 62
    -7
  6
CONTINUOUS
  0
ENDTAB
  0
TABLE
  2
STYLE
  5
1F13
330
0
100
AcDbSymbolTable
 70
     2
  0
STYLE
  5
1F21
330
1F13
100
AcDbSymbolTableRecord
100
AcDbTextStyleTableRecord
  2
STANDARD
 70
     0
 40
0.0
 41
1.0
 50
0.0
 71
     0
 42
2.5
  3
txt
  4
extfont.shx
  0
STYLE
  5
1F32
330
1F13
100
AcDbSymbolTableRecord
100
AcDbTextStyleTableRecord
  2
GOTHIC
 70
     0
 40
0.0
 41
1.0
 50
0.0
 71
     0
 42
1.5
  3
txt
  4
extfont.shx
  0
ENDTAB
  0
TABLE
  2
VIEW
  5
1F16
330
0
100
AcDbSymbolTable
 70
     0
  0
ENDTAB
  0
TABLE
  2
UCS
  5
1F17
330
0
100
AcDbSymbolTable
 70
     0
  0
ENDTAB
  0
TABLE
  2
APPID
  5
1F19
330
0
100
AcDbSymbolTable
 70
     4
  0
APPID
  5
1F22
330
1F19
100
AcDbSymbolTableRecord
100
AcDbRegAppTableRecord
  2
ACAD
 70
     0
  0
APPID
  5
1F4B
330
1F19
100
AcDbSymbolTableRecord
100
AcDbRegAppTableRecord
  2
ACAD_DSTYLE_DIMTEXT_FILL
 70
     0
  0
APPID
  5
1F4C
330
1F19
100
AcDbSymbolTableRecord
100
AcDbRegAppTableRecord
  2
ACAD_PSEXT
 70
     0
  0
APPID
  5
1F4D
330
1F19
100
AcDbSymbolTableRecord
100
AcDbRegAppTableRecord
  2
CONTENTBLOCKICON
 70
     0
  0
ENDTAB
  0
TABLE
  2
DIMSTYLE
  5
1F1A
330
0
100
AcDbSymbolTable
 70
     2
  0
DIMSTYLE
105
1F4E
102
{ACAD_REACTORS
330
263F
330
2640
330
2641
330
2655
330
265A
330
265F
330
2685
330
2687
330
2688
330
2690
102
}
330
1F1A
100
AcDbSymbolTableRecord
100
AcDbDimStyleTableRecord
  2
ISO-25
 70
     0
  3

  4

  5

  6

  7

 40
1.0
 41
2.5
 42
0.625
 43
3.75
 44
1.25
 45
0.0
 46
0.0
 47
0.0
 48
0.0
140
2.5
141
2.5
142
0.0
143
0.03937007874016
144
1.0
145
0.0
146
1.0
147
0.625
 71
     0
 72
     0
 73
     0
 74
     0
 75
     0
 76
     0
 77
     1
 78
     8
170
     0
171
     3
172
     1
173
     0
174
     0
175
     0
176
     0
177
     0
178
     0
270
     2
271
     4
272
     4
273
     2
274
     3
340
1F32
275
     0
280
     0
281
     0
282
     0
283
     1
284
     8
285
     8
286
     8
287
     3
288
     0
  0
DIMSTYLE
105
1F50
330
1F1A
100
AcDbSymbolTableRecord
100
AcDbDimStyleTableRecord
  2
VESSEL_ENGINEERING_ORIGIN0
 70
     0
  3

  4

  5

  6

  7

 40
1.0
 41
1.0
 42
0.0
 43
1.5
 44
1.5
 45
0.0
 46
0.0
 47
0.0
 48
0.0
140
1.5
141
0.0
142
0.0
143
0.03937007874016
144
1.0
145
0.0
146
1.0
147
0.5
 71
     0
 72
     0
 73
     0
 74
     0
 75
     0
 76
     0
 77
     1
 78
     8
170
     0
171
     3
172
     1
173
     0
174
     0
175
     0
176
   256
177
   256
178
   256
270
     2
271
     4
272
     4
273
     2
274
     3
340
1F32
275
     0
280
     0
281
     0
282
     0
283
     1
284
     8
285
     8
286
     8
287
     3
288
     0
  0
ENDTAB
  0
TABLE
  2
BLOCK_RECORD
  5
1F11
330
0
100
AcDbSymbolTable
 70
    23
  0
BLOCK_RECORD
  5
1F2E
102
{ACAD_XDICTIONARY
360
269A
102
}
330
1F11
100
AcDbSymbolTableRecord
100
AcDbBlockTableRecord
  2
*MODEL_SPACE
  0
BLOCK_RECORD
  5
1F2A
102
{ACAD_XDICTIONARY
360
2698
102
}
330
1F11
100
AcDbSymbolTableRecord
100
AcDbBlockTableRecord
  2
*PAPER_SPACE
  0
BLOCK_RECORD
  5
1F62
330
1F11
100
AcDbSymbolTableRecord
100
AcDbBlockTableRecord
  2
_OPEN30
  0
BLOCK_RECORD
  5
22A9
330
1F11
100
AcDbSymbolTableRecord
100
AcDbBlockTableRecord
  2
*D1
  0
BLOCK_RECORD
  5
22B4
330
1F11
100
AcDbSymbolTableRecord
100
AcDbBlockTableRecord
  2
*D2
  0
BLOCK_RECORD
  5
22F2
330
1F11
100
AcDbSymbolTableRecord
100
AcDbBlockTableRecord
  2
*D3
  0
BLOCK_RECORD
  5
22F9
330
1F11
100
AcDbSymbolTableRecord
100
AcDbBlockTableRecord
  2
*U4
  0
BLOCK_RECORD
  5
2341
330
1F11
100
AcDbSymbolTableRecord
100
AcDbBlockTableRecord
  2
*D5
  0
BLOCK_RECORD
  5
2348
330
1F11
100
AcDbSymbolTableRecord
100
AcDbBlockTableRecord
  2
*U6
  0
BLOCK_RECORD
  5
234E
330
1F11
100
AcDbSymbolTableRecord
100
AcDbBlockTableRecord
  2
*D7
  0
BLOCK_RECORD
  5
2355
330
1F11
100
AcDbSymbolTableRecord
100
AcDbBlockTableRecord
  2
*U8
  0
BLOCK_RECORD
  5
2366
330
1F11
100
AcDbSymbolTableRecord
100
AcDbBlockTableRecord
  2
*D9
  0
BLOCK_RECORD
  5
236D
330
1F11
100
AcDbSymbolTableRecord
100
AcDbBlockTableRecord
  2
*U10
  0
BLOCK_RECORD
  5
23BF
330
1F11
100
AcDbSymbolTableRecord
100
AcDbBlockTableRecord
  2
*D11
  0
BLOCK_RECORD
  5
23C6
330
1F11
100
AcDbSymbolTableRecord
100
AcDbBlockTableRecord
  2
*U12
  0
BLOCK_RECORD
  5
23D7
330
1F11
100
AcDbSymbolTableRecord
100
AcDbBlockTableRecord
  2
*D13
  0
BLOCK_RECORD
  5
23DE
330
1F11
100
AcDbSymbolTableRecord
100
AcDbBlockTableRecord
  2
*U14
  0
BLOCK_RECORD
  5
23E4
330
1F11
100
AcDbSymbolTableRecord
100
AcDbBlockTableRecord
  2
*D15
  0
BLOCK_RECORD
  5
23EB
330
1F11
100
AcDbSymbolTableRecord
100
AcDbBlockTableRecord
  2
*U16
  0
BLOCK_RECORD
  5
23F1
330
1F11
100
AcDbSymbolTableRecord
100
AcDbBlockTableRecord
  2
*D17
  0
BLOCK_RECORD
  5
23F8
330
1F11
100
AcDbSymbolTableRecord
100
AcDbBlockTableRecord
  2
*U18
  0
BLOCK_RECORD
  5
2581
330
1F11
100
AcDbSymbolTableRecord
100
AcDbBlockTableRecord
  2
*U19
  0
BLOCK_RECORD
  5
2585
330
1F11
100
AcDbSymbolTableRecord
100
AcDbBlockTableRecord
  2
*U20
  0
BLOCK_RECORD
  5
269C
330
1F11
100
AcDbSymbolTableRecord
100
AcDbBlockTableRecord
  2
*D21
  0
BLOCK_RECORD
  5
26A7
330
1F11
100
AcDbSymbolTableRecord
100
AcDbBlockTableRecord
  2
*D22
  0
ENDTAB
  0
ENDSEC
  0
SECTION
  2
BLOCKS
  0
BLOCK
  5
1F2F
330
1F2E
100
AcDbEntity
  8
0
100
AcDbBlockBegin
  2
*MODEL_SPACE
 70
     0
 10
0.0
 20
0.0
 30
0.0
  3
*MODEL_SPACE
  1

  0
ENDBLK
  5
1F30
330
1F2E
100
AcDbEntity
  8
0
100
AcDbBlockEnd
  0
BLOCK
  5
1F2B
330
1F2A
100
AcDbEntity
 67
     1
  8
0
100
AcDbBlockBegin
  2
*PAPER_SPACE
 70
     0
 10
0.0
 20
0.0
 30
0.0
  3
*PAPER_SPACE
  1

  0
ENDBLK
  5
1F2C
330
1F2A
100
AcDbEntity
 67
     1
  8
0
100
AcDbBlockEnd
  0
BLOCK
  5
1F63
330
1F62
100
AcDbEntity
  8
0
100
AcDbBlockBegin
  2
_OPEN30
 70
     0
 10
0.0
 20
0.0
 30
0.0
  3
_OPEN30
  1

  0
LINE
  5
1F64
330
1F62
100
AcDbEntity
  8
0
  6
BYBLOCK
 62
     0
100
AcDbLine
 10
-1.0
 20
0.26794919
 30
0.0
 11
0.0
 21
0.0
 31
0.0
  0
LINE
  5
1F65
330
1F62
100
AcDbEntity
  8
0
  6
BYBLOCK
 62
     0
100
AcDbLine
 10
0.0
 20
0.0
 30
0.0
 11
-1.0
 21
-0.26794919
 31
0.0
  0
LINE
  5
1F66
330
1F62
100
AcDbEntity
  8
0
  6
BYBLOCK
 62
     0
100
AcDbLine
 10
0.0
 20
0.0
 30
0.0
 11
-1.0
 21
0.0
 31
0.0
  0
ENDBLK
  5
1F67
330
1F62
100
AcDbEntity
  8
0
100
AcDbBlockEnd
  0
BLOCK
  5
22AA
330
22A9
100
AcDbEntity
  8
0
100
AcDbBlockBegin
  2
*D1
 70
     1
 10
0.0
 20
0.0
 30
0.0
  3
*D1
  1

  0
LINE
  5
22AB
330
22A9
100
AcDbEntity
  8
DIMENSION
100
AcDbLine
 10
60.25
 20
73.49999999999998
 30
0.0
 11
60.25
 21
88.7123566815039
 31
0.0
  0
LINE
  5
22AC
330
22A9
100
AcDbEntity
  8
DIMENSION
100
AcDbLine
 10
40.25
 20
87.2123566815039
 30
0.0
 11
59.25
 21
87.2123566815039
 31
0.0
  0
INSERT
  5
22AD
330
22A9
100
AcDbEntity
  8
DIMENSION
100
AcDbBlockReference
  2
_OPEN30
 10
39.25
 20
87.2123566815039
 30
0.0
 50
180.0
  0
INSERT
  5
22AE
330
22A9
100
AcDbEntity
  8
DIMENSION
100
AcDbBlockReference
  2
_OPEN30
 10
60.25
 20
87.2123566815039
 30
0.0
  0
TEXT
  5
22AF
330
22A9
100
AcDbEntity
  8
DIMENSION
100
AcDbText
 10
49.75
 20
86.51239999999999
 30
0.0
 40
1.5
  1
21
  7
GOTHIC
100
AcDbText
  0
POINT
  5
22B0
330
22A9
100
AcDbEntity
  8
DEFPOINTS
 62
     0
100
AcDbPoint
 10
39.25
 20
75.5
 30
0.0
  0
POINT
  5
22B1
330
22A9
100
AcDbEntity
  8
DEFPOINTS
 62
     0
100
AcDbPoint
 10
60.25
 20
73.49999999999998
 30
0.0
  0
POINT
  5
22B2
330
22A9
100
AcDbEntity
  8
DEFPOINTS
 62
     0
100
AcDbPoint
 10
60.25
 20
87.2123566815039
 30
0.0
  0
ENDBLK
  5
22B3
330
22A9
100
AcDbEntity
  8
0
100
AcDbBlockEnd
  0
BLOCK
  5
22B5
330
22B4
100
AcDbEntity
  8
0
100
AcDbBlockBegin
  2
*D2
 70
     1
 10
0.0
 20
0.0
 30
0.0
  3
*D2
  1

  0
LINE
  5
22B6
330
22B4
100
AcDbEntity
  8
DIMENSION
100
AcDbLine
 10
60.25
 20
73.5
 30
0.0
 11
60.25
 21
88.7123566815039
 31
0.0
  0
LINE
  5
22B7
330
22B4
100
AcDbEntity
  8
DIMENSION
100
AcDbLine
 10
61.25
 20
87.2123566815039
 30
0.0
 11
73.25
 21
87.2123566815039
 31
0.0
  0
INSERT
  5
22B8
330
22B4
100
AcDbEntity
  8
DIMENSION
100
AcDbBlockReference
  2
_OPEN30
 10
60.25
 20
87.2123566815039
 30
0.0
 50
180.0
  0
INSERT
  5
22B9
330
22B4
100
AcDbEntity
  8
DIMENSION
100
AcDbBlockReference
  2
_OPEN30
 10
74.25
 20
87.2123566815039
 30
0.0
  0
TEXT
  5
22BA
330
22B4
100
AcDbEntity
  8
DIMENSION
100
AcDbText
 10
67.25
 20
86.51239999999999
 30
0.0
 40
1.5
  1
14
  7
GOTHIC
100
AcDbText
  0
POINT
  5
22BB
330
22B4
100
AcDbEntity
  8
DEFPOINTS
 62
     0
100
AcDbPoint
 10
60.25
 20
73.5
 30
0.0
  0
POINT
  5
22BC
330
22B4
100
AcDbEntity
  8
DEFPOINTS
 62
     0
100
AcDbPoint
 10
74.25
 20
84.09247405217694
 30
0.0
  0
POINT
  5
22BD
330
22B4
100
AcDbEntity
  8
DEFPOINTS
 62
     0
100
AcDbPoint
 10
74.25
 20
87.2123566815039
 30
0.0
  0
ENDBLK
  5
22BE
330
22B4
100
AcDbEntity
  8
0
100
AcDbBlockEnd
  0
BLOCK
  5
22F3
330
22F2
100
AcDbEntity
  8
0
100
AcDbBlockBegin
  2
*D3
 70
     1
 10
0.0
 20
0.0
 30
0.0
  3
*D3
  1

  0
LINE
  5
22F4
330
22F2
100
AcDbEntity
  8
DIMENSION
100
AcDbLine
 10
39.25
 20
75.5
 30
0.0
 11
33.75
 21
75.5
 31
0.0
  0
LINE
  5
22F5
330
22F2
100
AcDbEntity
  8
DIMENSION
100
AcDbLine
 10
39.25
 20
71.50000000000002
 30
0.0
 11
33.75
 21
71.50000000000002
 31
0.0
  0
LINE
  5
22F6
330
22F2
100
AcDbEntity
  8
DIMENSION
100
AcDbLine
 10
35.25
 20
74.5
 30
0.0
 11
35.25
 21
72.50000000000001
 31
0.0
  0
INSERT
  5
22F7
330
22F2
100
AcDbEntity
  8
DIMENSION
100
AcDbBlockReference
  2
_OPEN30
 10
35.25
 20
75.5
 30
0.0
 50
90.0
  0
INSERT
  5
22F8
330
22F2
100
AcDbEntity
  8
DIMENSION
100
AcDbBlockReference
  2
_OPEN30
 10
35.25
 20
71.50000000000002
 30
0.0
 50
270.0
  0
INSERT
  5
22FA
330
22F2
100
AcDbEntity
  8
0
100
AcDbBlockReference
  2
*U4
 10
0.0
 20
0.0
 30
0.0
  0
POINT
  5
22FB
330
22F2
100
AcDbEntity
  8
DEFPOINTS
 62
     0
100
AcDbPoint
 10
39.25
 20
75.5
 30
0.0
  0
POINT
  5
22FC
330
22F2
100
AcDbEntity
  8
DEFPOINTS
 62
     0
100
AcDbPoint
 10
39.25
 20
71.50000000000002
 30
0.0
  0
POINT
  5
22FD
330
22F2
100
AcDbEntity
  8
DEFPOINTS
 62
     0
100
AcDbPoint
 10
35.25
 20
71.50000000000002
 30
0.0
  0
ENDBLK
  5
22FE
330
22F2
100
AcDbEntity
  8
0
100
AcDbBlockEnd
  0
BLOCK
  5
2595
330
22F9
100
AcDbEntity
  8
0
100
AcDbBlockBegin
  2
*U4
 70
     1
 10
0.0
 20
0.0
 30
0.0
  3
*U4
  1

  0
TEXT
  5
2596
330
22F9
100
AcDbEntity
  8
DIMENSION
100
AcDbText
 10
34.75
 20
73.01649746192895
 30
0.0
 40
1.5
  1
4
 50
90.0
  7
GOTHIC
100
AcDbText
  0
ENDBLK
  5
2597
330
22F9
100
AcDbEntity
  8
0
100
AcDbBlockEnd
  0
BLOCK
  5
2342
330
2341
100
AcDbEntity
  8
0
100
AcDbBlockBegin
  2
*D5
 70
     1
 10
0.0
 20
0.0
 30
0.0
  3
*D5
  1

  0
LINE
  5
2343
330
2341
100
AcDbEntity
  8
DIMENSION
100
AcDbLine
 10
15.1016488076344
 20
83.50000000000001
 30
0.0
 11
7.601648807634409
 21
83.50000000000001
 31
0.0
  0
LINE
  5
2344
330
2341
100
AcDbEntity
  8
DIMENSION
100
AcDbLine
 10
15.1016488076344
 20
63.50000000000001
 30
0.0
 11
7.601648807634402
 21
63.50000000000001
 31
0.0
  0
LINE
  5
2345
330
2341
100
AcDbEntity
  8
DIMENSION
100
AcDbLine
 10
9.101648807634408
 20
82.50000000000001
 30
0.0
 11
9.101648807634402
 21
64.50000000000001
 31
0.0
  0
INSERT
  5
2346
330
2341
100
AcDbEntity
  8
DIMENSION
100
AcDbBlockReference
  2
_OPEN30
 10
9.101648807634408
 20
83.50000000000001
 30
0.0
 50
90.0
  0
INSERT
  5
2347
330
2341
100
AcDbEntity
  8
DIMENSION
100
AcDbBlockReference
  2
_OPEN30
 10
9.101648807634402
 20
63.50000000000001
 30
0.0
 50
270.0
  0
INSERT
  5
2349
330
2341
100
AcDbEntity
  8
0
100
AcDbBlockReference
  2
*U6
 10
0.0
 20
0.0
 30
0.0
  0
POINT
  5
234A
330
2341
100
AcDbEntity
  8
DEFPOINTS
 62
     0
100
AcDbPoint
 10
15.1016488076344
 20
83.50000000000001
 30
0.0
  0
POINT
  5
234B
330
2341
100
AcDbEntity
  8
DEFPOINTS
 62
     0
100
AcDbPoint
 10
15.1016488076344
 20
63.50000000000001
 30
0.0
  0
POINT
  5
234C
330
2341
100
AcDbEntity
  8
DEFPOINTS
 62
     0
100
AcDbPoint
 10
9.101648807634402
 20
63.50000000000001
 30
0.0
  0
ENDBLK
  5
234D
330
2341
100
AcDbEntity
  8
0
100
AcDbBlockEnd
  0
BLOCK
  5
25F3
330
2348
100
AcDbEntity
  8
0
100
AcDbBlockBegin
  2
*U6
 70
     1
 10
0.0
 20
0.0
 30
0.0
  3
*U6
  1

  0
TEXT
  5
25F4
330
2348
100
AcDbEntity
  8
DIMENSION
100
AcDbText
 10
8.601648807634392
 20
72.51776649746195
 30
0.0
 40
1.5
  1
20
 50
90.0
  7
GOTHIC
100
AcDbText
  0
ENDBLK
  5
25F5
330
2348
100
AcDbEntity
  8
0
100
AcDbBlockEnd
  0
BLOCK
  5
234F
330
234E
100
AcDbEntity
  8
0
100
AcDbBlockBegin
  2
*D7
 70
     1
 10
0.0
 20
0.0
 30
0.0
  3
*D7
  1

  0
LINE
  5
2350
330
234E
100
AcDbEntity
  8
DIMENSION
100
AcDbLine
 10
39.25
 20
75.5
 30
0.0
 11
39.25
 21
93.21235668150391
 31
0.0
  0
LINE
  5
2351
330
234E
100
AcDbEntity
  8
DIMENSION
100
AcDbLine
 10
74.25
 20
84.09247405217694
 30
0.0
 11
74.25
 21
93.21235668150391
 31
0.0
  0
LINE
  5
2352
330
234E
100
AcDbEntity
  8
DIMENSION
100
AcDbLine
 10
40.25
 20
91.71235668150393
 30
0.0
 11
73.25
 21
91.71235668150393
 31
0.0
  0
INSERT
  5
2353
330
234E
100
AcDbEntity
  8
DIMENSION
100
AcDbBlockReference
  2
_OPEN30
 10
39.25
 20
91.71235668150393
 30
0.0
 50
180.0
  0
INSERT
  5
2354
330
234E
100
AcDbEntity
  8
DIMENSION
100
AcDbBlockReference
  2
_OPEN30
 10
74.25
 20
91.71235668150393
 30
0.0
  0
INSERT
  5
2356
330
234E
100
AcDbEntity
  8
0
100
AcDbBlockReference
  2
*U8
 10
0.0
 20
0.0
 30
0.0
  0
POINT
  5
2357
330
234E
100
AcDbEntity
  8
DEFPOINTS
 62
     0
100
AcDbPoint
 10
39.25
 20
75.5
 30
0.0
  0
POINT
  5
2358
330
234E
100
AcDbEntity
  8
DEFPOINTS
 62
     0
100
AcDbPoint
 10
74.25
 20
84.09247405217694
 30
0.0
  0
POINT
  5
2359
330
234E
100
AcDbEntity
  8
DEFPOINTS
 62
     0
100
AcDbPoint
 10
74.25
 20
91.71235668150393
 30
0.0
  0
ENDBLK
  5
235A
330
234E
100
AcDbEntity
  8
0
100
AcDbBlockEnd
  0
BLOCK
  5
25F0
330
2355
100
AcDbEntity
  8
0
100
AcDbBlockBegin
  2
*U8
 70
     1
 10
0.0
 20
0.0
 30
0.0
  3
*U8
  1

  0
TEXT
  5
25F1
330
2355
100
AcDbEntity
  8
DIMENSION
100
AcDbText
 10
55.79060913705585
 20
92.2123566815039
 30
0.0
 40
1.5
  1
35
  7
GOTHIC
100
AcDbText
  0
ENDBLK
  5
25F2
330
2355
100
AcDbEntity
  8
0
100
AcDbBlockEnd
  0
BLOCK
  5
2367
330
2366
100
AcDbEntity
  8
0
100
AcDbBlockBegin
  2
*D9
 70
     1
 10
0.0
 20
0.0
 30
0.0
  3
*D9
  1

  0
LINE
  5
2368
330
2366
100
AcDbEntity
  8
DIMENSION
100
AcDbLine
 10
20.1016488076344
 20
63.50000000000001
 30
0.0
 11
20.1016488076344
 21
57.21235668150391
 31
0.0
  0
LINE
  5
2369
330
2366
100
AcDbEntity
  8
DIMENSION
100
AcDbLine
 10
24.10164880763441
 20
63.50000000000001
 30
0.0
 11
24.10164880763441
 21
57.21235668150391
 31
0.0
  0
LINE
  5
236A
330
2366
100
AcDbEntity
  8
DIMENSION
100
AcDbLine
 10
21.10164880763439
 20
58.7123566815039
 30
0.0
 11
23.10164880763441
 21
58.7123566815039
 31
0.0
  0
INSERT
  5
236B
330
2366
100
AcDbEntity
  8
DIMENSION
100
AcDbBlockReference
  2
_OPEN30
 10
20.1016488076344
 20
58.7123566815039
 30
0.0
 50
180.0
  0
INSERT
  5
236C
330
2366
100
AcDbEntity
  8
DIMENSION
100
AcDbBlockReference
  2
_OPEN30
 10
24.10164880763441
 20
58.7123566815039
 30
0.0
  0
INSERT
  5
236E
330
2366
100
AcDbEntity
  8
0
100
AcDbBlockReference
  2
*U10
 10
0.0
 20
0.0
 30
0.0
  0
POINT
  5
236F
330
2366
100
AcDbEntity
  8
DEFPOINTS
 62
     0
100
AcDbPoint
 10
20.1016488076344
 20
63.50000000000001
 30
0.0
  0
POINT
  5
2370
330
2366
100
AcDbEntity
  8
DEFPOINTS
 62
     0
100
AcDbPoint
 10
24.10164880763441
 20
63.50000000000001
 30
0.0
  0
POINT
  5
2371
330
2366
100
AcDbEntity
  8
DEFPOINTS
 62
     0
100
AcDbPoint
 10
24.10164880763441
 20
58.7123566815039
 30
0.0
  0
ENDBLK
  5
2372
330
2366
100
AcDbEntity
  8
0
100
AcDbBlockEnd
  0
BLOCK
  5
25F6
330
236D
100
AcDbEntity
  8
0
100
AcDbBlockBegin
  2
*U10
 70
     1
 10
0.0
 20
0.0
 30
0.0
  3
*U10
  1

  0
TEXT
  5
25F7
330
236D
100
AcDbEntity
  8
DIMENSION
100
AcDbText
 10
21.61814626956334
 20
59.21235668150391
 30
0.0
 40
1.5
  1
4
  7
GOTHIC
100
AcDbText
  0
ENDBLK
  5
25F8
330
236D
100
AcDbEntity
  8
0
100
AcDbBlockEnd
  0
BLOCK
  5
23C0
330
23BF
100
AcDbEntity
  8
0
100
AcDbBlockBegin
  2
*D11
 70
     1
 10
0.0
 20
0.0
 30
0.0
  3
*D11
  1

  0
LINE
  5
23C1
330
23BF
100
AcDbEntity
  8
DIMENSION
100
AcDbLine
 10
119.4646428928642
 20
48.0
 30
0.0
 11
131.25
 21
48.0
 31
0.0
  0
LINE
  5
23C2
330
23BF
100
AcDbEntity
  8
DIMENSION
100
AcDbLine
 10
119.4646428928642
 20
39.0
 30
0.0
 11
131.25
 21
39.0
 31
0.0
  0
LINE
  5
23C3
330
23BF
100
AcDbEntity
  8
DIMENSION
100
AcDbLine
 10
129.75
 20
47.0
 30
0.0
 11
129.75
 21
40.0
 31
0.0
  0
INSERT
  5
23C4
330
23BF
100
AcDbEntity
  8
DIMENSION
100
AcDbBlockReference
  2
_OPEN30
 10
129.75
 20
48.0
 30
0.0
 50
90.0
  0
INSERT
  5
23C5
330
23BF
100
AcDbEntity
  8
DIMENSION
100
AcDbBlockReference
  2
_OPEN30
 10
129.75
 20
39.0
 30
0.0
 50
270.0
  0
INSERT
  5
23C7
330
23BF
100
AcDbEntity
  8
0
100
AcDbBlockReference
  2
*U12
 10
0.0
 20
0.0
 30
0.0
  0
POINT
  5
23C8
330
23BF
100
AcDbEntity
  8
DEFPOINTS
 62
     0
100
AcDbPoint
 10
119.4646428928642
 20
48.0
 30
0.0
  0
POINT
  5
23C9
330
23BF
100
AcDbEntity
  8
DEFPOINTS
 62
     0
100
AcDbPoint
 10
119.4646428928642
 20
39.0
 30
0.0
  0
POINT
  5
23CA
330
23BF
100
AcDbEntity
  8
DEFPOINTS
 62
     0
100
AcDbPoint
 10
129.75
 20
39.0
 30
0.0
  0
ENDBLK
  5
23CB
330
23BF
100
AcDbEntity
  8
0
100
AcDbBlockEnd
  0
BLOCK
  5
25DF
330
23C6
100
AcDbEntity
  8
0
100
AcDbBlockBegin
  2
*U12
 70
     1
 10
0.0
 20
0.0
 30
0.0
  3
*U12
  1

  0
TEXT
  5
25E0
330
23C6
100
AcDbEntity
  8
DIMENSION
100
AcDbText
 10
129.2499999999999
 20
41.57436548223352
 30
0.0
 40
1.5
  1
9
 50
90.0
  7
GOTHIC
100
AcDbText
  0
TEXT
  5
25E1
330
23C6
100
AcDbEntity
  8
DIMENSION
100
AcDbText
 10
127.6621827411166
 20
42.54898477157361
 30
0.0
 40
1.199999999999999
  1
 0
 50
90.0
  7
GOTHIC
100
AcDbText
  0
TEXT
  5
25E2
330
23C6
100
AcDbEntity
  8
DIMENSION
100
AcDbText
 10
129.2499999999999
 20
42.51243654822338
 30
0.0
 40
1.199999999999999
  1
-0.1
 50
90.0
  7
GOTHIC
100
AcDbText
  0
ENDBLK
  5
25E3
330
23C6
100
AcDbEntity
  8
0
100
AcDbBlockEnd
  0
BLOCK
  5
23D8
330
23D7
100
AcDbEntity
  8
0
100
AcDbBlockBegin
  2
*D13
 70
     1
 10
0.0
 20
0.0
 30
0.0
  3
*D13
  1

  0
LINE
  5
23D9
330
23D7
100
AcDbEntity
  8
DIMENSION
100
AcDbLine
 10
61.25
 20
39.0
 30
0.0
 11
61.25
 21
33.75
 31
0.0
  0
LINE
  5
23DA
330
23D7
100
AcDbEntity
  8
DIMENSION
100
AcDbLine
 10
74.25
 20
38.25
 30
0.0
 11
74.25
 21
33.75
 31
0.0
  0
LINE
  5
23DB
330
23D7
100
AcDbEntity
  8
DIMENSION
100
AcDbLine
 10
62.25000000000001
 20
35.25
 30
0.0
 11
73.25
 21
35.25
 31
0.0
  0
INSERT
  5
23DC
330
23D7
100
AcDbEntity
  8
DIMENSION
100
AcDbBlockReference
  2
_OPEN30
 10
61.25
 20
35.25
 30
0.0
 50
180.0
  0
INSERT
  5
23DD
330
23D7
100
AcDbEntity
  8
DIMENSION
100
AcDbBlockReference
  2
_OPEN30
 10
74.25
 20
35.25
 30
0.0
  0
INSERT
  5
23DF
330
23D7
100
AcDbEntity
  8
0
100
AcDbBlockReference
  2
*U14
 10
0.0
 20
0.0
 30
0.0
  0
POINT
  5
23E0
330
23D7
100
AcDbEntity
  8
DEFPOINTS
 62
     0
100
AcDbPoint
 10
61.25
 20
39.0
 30
0.0
  0
POINT
  5
23E1
330
23D7
100
AcDbEntity
  8
DEFPOINTS
 62
     0
100
AcDbPoint
 10
74.25
 20
38.25
 30
0.0
  0
POINT
  5
23E2
330
23D7
100
AcDbEntity
  8
DEFPOINTS
 62
     0
100
AcDbPoint
 10
74.25
 20
35.25
 30
0.0
  0
ENDBLK
  5
23E3
330
23D7
100
AcDbEntity
  8
0
100
AcDbBlockEnd
  0
BLOCK
  5
25E4
330
23DE
100
AcDbEntity
  8
0
100
AcDbBlockBegin
  2
*U14
 70
     1
 10
0.0
 20
0.0
 30
0.0
  3
*U14
  1

  0
TEXT
  5
25E5
330
23DE
100
AcDbEntity
  8
DIMENSION
100
AcDbText
 10
66.73730964467003
 20
35.75
 30
0.0
 40
1.5
  1
13
  7
GOTHIC
100
AcDbText
  0
ENDBLK
  5
25E6
330
23DE
100
AcDbEntity
  8
0
100
AcDbBlockEnd
  0
BLOCK
  5
23E5
330
23E4
100
AcDbEntity
  8
0
100
AcDbBlockBegin
  2
*D15
 70
     1
 10
0.0
 20
0.0
 30
0.0
  3
*D15
  1

  0
LINE
  5
23E6
330
23E4
100
AcDbEntity
  8
DIMENSION
100
AcDbLine
 10
39.25
 20
48.0
 30
0.0
 11
33.75
 21
48.0
 31
0.0
  0
LINE
  5
23E7
330
23E4
100
AcDbEntity
  8
DIMENSION
100
AcDbLine
 10
50.02549066168217
 20
44.0
 30
0.0
 11
33.74999999999999
 21
44.00000000000001
 31
0.0
  0
LINE
  5
23E8
330
23E4
100
AcDbEntity
  8
DIMENSION
100
AcDbLine
 10
35.24999999999999
 20
47.0
 30
0.0
 11
35.24999999999999
 21
45.0
 31
0.0
  0
INSERT
  5
23E9
330
23E4
100
AcDbEntity
  8
DIMENSION
100
AcDbBlockReference
  2
_OPEN30
 10
35.24999999999999
 20
48.0
 30
0.0
 50
90.0
  0
INSERT
  5
23EA
330
23E4
100
AcDbEntity
  8
DIMENSION
100
AcDbBlockReference
  2
_OPEN30
 10
35.24999999999999
 20
44.00000000000001
 30
0.0
 50
270.0
  0
INSERT
  5
23EC
330
23E4
100
AcDbEntity
  8
0
100
AcDbBlockReference
  2
*U16
 10
0.0
 20
0.0
 30
0.0
  0
POINT
  5
23ED
330
23E4
100
AcDbEntity
  8
DEFPOINTS
 62
     0
100
AcDbPoint
 10
39.25
 20
48.0
 30
0.0
  0
POINT
  5
23EE
330
23E4
100
AcDbEntity
  8
DEFPOINTS
 62
     0
100
AcDbPoint
 10
50.02549066168217
 20
44.0
 30
0.0
  0
POINT
  5
23EF
330
23E4
100
AcDbEntity
  8
DEFPOINTS
 62
     0
100
AcDbPoint
 10
35.24999999999999
 20
44.00000000000001
 30
0.0
  0
ENDBLK
  5
23F0
330
23E4
100
AcDbEntity
  8
0
100
AcDbBlockEnd
  0
BLOCK
  5
25E7
330
23EB
100
AcDbEntity
  8
0
100
AcDbBlockBegin
  2
*U16
 70
     1
 10
0.0
 20
0.0
 30
0.0
  3
*U16
  1

  0
TEXT
  5
25E8
330
23EB
100
AcDbEntity
  8
DIMENSION
100
AcDbText
 10
34.74999999999996
 20
45.51649746192895
 30
0.0
 40
1.5
  1
4
 50
90.0
  7
GOTHIC
100
AcDbText
  0
ENDBLK
  5
25E9
330
23EB
100
AcDbEntity
  8
0
100
AcDbBlockEnd
  0
BLOCK
  5
23F2
330
23F1
100
AcDbEntity
  8
0
100
AcDbBlockBegin
  2
*D17
 70
     1
 10
0.0
 20
0.0
 30
0.0
  3
*D17
  1

  0
LINE
  5
23F3
330
23F1
100
AcDbEntity
  8
DIMENSION
100
AcDbLine
 10
74.65852867240768
 20
74.46726641822241
 30
0.0
 11
73.8414713275923
 21
72.53273358177762
 31
0.0
  0
LINE
  5
23F4
330
23F1
100
AcDbEntity
  8
DIMENSION
100
AcDbLine
 10
73.45239640148971
 20
71.61152746918488
 30
0.0
 11
68.54822335025379
 21
60.00000000000002
 31
0.0
  0
LINE
  5
23F5
330
23F1
100
AcDbEntity
  8
DIMENSION
100
AcDbLine
 10
68.54822335025379
 20
60.00000000000002
 30
0.0
 11
63.95177664974617
 21
60.00000000000002
 31
0.0
  0
INSERT
  5
23F6
330
23F1
100
AcDbEntity
  8
DIMENSION
100
AcDbBlockReference
  2
_OPEN30
 10
75.04760359851029
 20
75.38847253081519
 30
0.0
 50
67.10304915694854
  0
INSERT
  5
23F7
330
23F1
100
AcDbEntity
  8
DIMENSION
100
AcDbBlockReference
  2
_OPEN30
 10
73.45239640148971
 20
71.61152746918488
 30
0.0
 50
247.1030491569483
  0
INSERT
  5
23F9
330
23F1
100
AcDbEntity
  8
0
100
AcDbBlockReference
  2
*U18
 10
0.0
 20
0.0
 30
0.0
  0
POINT
  5
23FA
330
23F1
100
AcDbEntity
  8
DEFPOINTS
 62
     0
100
AcDbPoint
 10
73.45239640148971
 20
71.61152746918488
 30
0.0
  0
POINT
  5
23FB
330
23F1
100
AcDbEntity
  8
DEFPOINTS
 62
     0
100
AcDbPoint
 10
75.04760359851029
 20
75.38847253081519
 30
0.0
  0
ENDBLK
  5
23FC
330
23F1
100
AcDbEntity
  8
0
100
AcDbBlockEnd
  0
BLOCK
  5
25F9
330
23F8
100
AcDbEntity
  8
0
100
AcDbBlockBegin
  2
*U18
 70
     1
 10
0.0
 20
0.0
 30
0.0
  3
*U18
  1

  0
TEXT
  5
25FA
330
23F8
100
AcDbEntity
  8
DIMENSION
100
AcDbText
 10
63.55583756345177
 20
60.74365482233506
 30
0.0
 40
1.5
  1
φ4.1
  7
GOTHIC
100
AcDbText
  0
ENDBLK
  5
25FB
330
23F8
100
AcDbEntity
  8
0
100
AcDbBlockEnd
  0
BLOCK
  5
2582
330
2581
100
AcDbEntity
  8
0
100
AcDbBlockBegin
  2
*U19
 70
     1
 10
0.0
 20
0.0
 30
0.0
  3
*U19
  1

  0
TEXT
  5
2583
330
2581
100
AcDbEntity
  8
DIMENSION
 62
     3
100
AcDbText
 10
30.21749335501557
 20
72.66977244439637
 30
0.0
 40
1.5
  1
90°
 50
90.0
  7
GOTHIC
100
AcDbText
  0
ENDBLK
  5
2584
330
2581
100
AcDbEntity
  8
0
100
AcDbBlockEnd
  0
BLOCK
  5
2586
330
2585
100
AcDbEntity
  8
0
100
AcDbBlockBegin
  2
*U20
 70
     1
 10
0.0
 20
0.0
 30
0.0
  3
*U20
  1

  0
TEXT
  5
2587
330
2585
100
AcDbEntity
  8
DIMENSION
 62
     3
100
AcDbText
 10
19.36461245976007
 20
91.71293415916364
 30
0.0
 40
1.5
  1
23°
 50
11.49999999999996
  7
GOTHIC
100
AcDbText
  0
ENDBLK
  5
2588
330
2585
100
AcDbEntity
  8
0
100
AcDbBlockEnd
  0
BLOCK
  5
26A5
330
269C
100
AcDbEntity
  8
0
100
AcDbBlockBegin
  2
*D21
 70
     1
 10
0.0
 20
0.0
 30
0.0
  3
*D21
  1

  0
LINE
  5
269D
330
269C
100
AcDbEntity
  8
DIMENSION
 62
     0
100
AcDbLine
 10
60.25
 20
74.12499999999998
 30
0.0
 11
60.25
 21
88.4623566815039
 31
0.0
  0
LINE
  5
269E
330
269C
100
AcDbEntity
  8
DIMENSION
 62
     0
100
AcDbLine
 10
41.74999999999999
 20
87.2123566815039
 30
0.0
 11
57.75
 21
87.2123566815039
 31
0.0
  0
SOLID
  5
269F
330
269C
100
AcDbEntity
  8
DIMENSION
 62
     0
100
AcDbTrace
 10
41.74999999999999
 20
87.62902334817059
 30
0.0
 11
41.74999999999999
 21
86.79569001483722
 31
0.0
 12
39.25
 22
87.2123566815039
 32
0.0
 13
39.25
 23
87.2123566815039
 33
0.0
  0
SOLID
  5
26A0
330
269C
100
AcDbEntity
  8
DIMENSION
 62
     0
100
AcDbTrace
 10
57.75
 20
87.62902334817059
 30
0.0
 11
57.75
 21
86.79569001483722
 31
0.0
 12
60.25
 22
87.2123566815039
 32
0.0
 13
60.25
 23
87.2123566815039
 33
0.0
  0
MTEXT
  5
26A1
330
269C
100
AcDbEntity
  8
DIMENSION
 62
     0
100
AcDbMText
 10
49.75
 20
89.0873566815039
 30
0.0
 40
2.5
 41
0.0
 71
     5
 72
     1
  1
\A1;21
  7
GOTHIC
1001
ACAD
1000
MTEXTBEGIN
1070
    73
1070
     1
1070
    44
1040
1.0
1070
    74
1070
     0
1000
MTEXTEND
  0
POINT
  5
26A2
330
269C
100
AcDbEntity
  8
DEFPOINTS
 62
     0
100
AcDbPoint
 10
39.25
 20
75.5
 30
0.0
  0
POINT
  5
26A3
330
269C
100
AcDbEntity
  8
DEFPOINTS
 62
     0
100
AcDbPoint
 10
60.25
 20
73.49999999999998
 30
0.0
  0
POINT
  5
26A4
330
269C
100
AcDbEntity
  8
DEFPOINTS
 62
     0
100
AcDbPoint
 10
60.25
 20
87.2123566815039
 30
0.0
  0
ENDBLK
  5
26A6
330
269C
100
AcDbEntity
  8
0
100
AcDbBlockEnd
  0
BLOCK
  5
26B0
330
26A7
100
AcDbEntity
  8
0
100
AcDbBlockBegin
  2
*D22
 70
     1
 10
0.0
 20
0.0
 30
0.0
  3
*D22
  1

  0
LINE
  5
26A8
330
26A7
100
AcDbEntity
  8
DIMENSION
 62
     0
100
AcDbLine
 10
60.25
 20
74.125
 30
0.0
 11
60.25
 21
88.4623566815039
 31
0.0
  0
LINE
  5
26A9
330
26A7
100
AcDbEntity
  8
DIMENSION
 62
     0
100
AcDbLine
 10
62.75
 20
87.2123566815039
 30
0.0
 11
71.75
 21
87.2123566815039
 31
0.0
  0
SOLID
  5
26AA
330
26A7
100
AcDbEntity
  8
DIMENSION
 62
     0
100
AcDbTrace
 10
62.75
 20
87.62902334817059
 30
0.0
 11
62.75
 21
86.79569001483722
 31
0.0
 12
60.25
 22
87.2123566815039
 32
0.0
 13
60.25
 23
87.2123566815039
 33
0.0
  0
SOLID
  5
26AB
330
26A7
100
AcDbEntity
  8
DIMENSION
 62
     0
100
AcDbTrace
 10
71.75
 20
87.62902334817059
 30
0.0
 11
71.75
 21
86.79569001483722
 31
0.0
 12
74.25
 22
87.2123566815039
 32
0.0
 13
74.25
 23
87.2123566815039
 33
0.0
  0
MTEXT
  5
26AC
330
26A7
100
AcDbEntity
  8
DIMENSION
 62
     0
100
AcDbMText
 10
67.25
 20
89.0873566815039
 30
0.0
 40
2.5
 41
0.0
 71
     5
 72
     1
  1
\A1;14
  7
GOTHIC
1001
ACAD
1000
MTEXTBEGIN
1070
    73
1070
     1
1070
    44
1040
1.0
1070
    74
1070
     0
1000
MTEXTEND
  0
POINT
  5
26AD
330
26A7
100
AcDbEntity
  8
DEFPOINTS
 62
     0
100
AcDbPoint
 10
60.25
 20
73.5
 30
0.0
  0
POINT
  5
26AE
330
26A7
100
AcDbEntity
  8
DEFPOINTS
 62
     0
100
AcDbPoint
 10
74.25
 20
84.09247405217694
 30
0.0
  0
POINT
  5
26AF
330
26A7
100
AcDbEntity
  8
DEFPOINTS
 62
     0
100
AcDbPoint
 10
74.25
 20
87.2123566815039
 30
0.0
  0
ENDBLK
  5
26B1
330
26A7
100
AcDbEntity
  8
0
100
AcDbBlockEnd
  0
ENDSEC
  0
SECTION
  2
ENTITIES
  0
TEXT
  5
25FC
330
1F2E
100
AcDbEntity
  8
TEXT
100
AcDbText
 10
9.0
 20
36.75
 30
0.0
 40
1.5
  1
◇ブレード仕様
  7
GOTHIC
 11
9.0
 21
37.5
 31
0.0
100
AcDbText
 73
     2
  0
TEXT
  5
25FD
330
1F2E
100
AcDbEntity
  8
TEXT
100
AcDbText
 10
12.0
 20
33.75
 30
0.0
 40
1.5
  1
切刃有効長　＝　17
  7
GOTHIC
 11
12.0
 21
34.5
 31
0.0
100
AcDbText
 73
     2
  0
TEXT
  5
25FE
330
1F2E
100
AcDbEntity
  8
TEXT
100
AcDbText
 10
12.0
 20
30.75
 30
0.0
 40
1.5
  1
刃開き最大　＝　 7
  7
GOTHIC
 11
12.0
 21
31.5
 31
0.0
100
AcDbText
 73
     2
  0
LINE
  5
25FF
330
1F2E
100
AcDbEntity
  8
TEXT
100
AcDbLine
 10
12.0
 20
33.0
 30
0.0
 11
30.0
 21
33.0
 31
0.0
  0
LINE
  5
2600
330
1F2E
100
AcDbEntity
  8
TEXT
100
AcDbLine
 10
12.0
 20
30.0
 30
0.0
 11
30.0
 21
30.0
 31
0.0
  0
TEXT
  5
2601
330
1F2E
100
AcDbEntity
  8
TEXT
100
AcDbText
 10
15.0
 20
48.75
 30
0.0
 40
1.5
  1
ＮＴ１０ＡＪＴ
  7
GOTHIC
 11
15.0
 21
49.5
 31
0.0
100
AcDbText
 73
     2
  0
TEXT
  5
2603
330
1F2E
100
AcDbEntity
  8
TEXT
100
AcDbText
 10
15.0
 20
42.75
 30
0.0
 40
1.5
  1
2005/03/28
  7
GOTHIC
 11
15.0
 21
43.5
 31
0.0
100
AcDbText
 73
     2
  0
LINE
  5
2604
330
1F2E
100
AcDbEntity
  8
CENTER
100
AcDbLine
 10
74.25
 20
84.09247405217694
 30
0.0
 11
74.25
 21
62.61534278017528
 31
0.0
  0
LINE
  5
2605
330
1F2E
100
AcDbEntity
  8
CENTER
100
AcDbLine
 10
13.473796304136
 20
73.50000000000001
 30
0.0
 11
26.23515138584636
 21
73.50000000000001
 31
0.0
  0
LINE
  5
2606
330
1F2E
100
AcDbEntity
  8
CENTER
100
AcDbLine
 10
38.30008996682409
 20
73.5
 30
0.0
 11
41.25
 21
73.50000000000001
 31
0.0
  0
LINE
  5
2607
330
1F2E
100
AcDbEntity
  8
CENTER
100
AcDbLine
 10
60.25
 20
73.5
 30
0.0
 11
118.25
 21
73.5
 31
0.0
  0
LINE
  5
2608
330
1F2E
100
AcDbEntity
  8
LINE
100
AcDbLine
 10
74.25
 20
83.49999999999999
 30
0.0
 11
79.25
 21
83.49999999999999
 31
0.0
  0
LINE
  5
2609
330
1F2E
100
AcDbEntity
  8
LINE
100
AcDbLine
 10
79.25
 20
83.49999999999999
 30
0.0
 11
116.4774428236029
 21
79.63221373261268
 31
0.0
  0
LINE
  5
260A
330
1F2E
100
AcDbEntity
  8
LINE
100
AcDbLine
 10
118.5354799105118
 20
78.49009725791354
 30
0.0
 11
121.25
 21
75.0
 31
0.0
  0
LINE
  5
260B
330
1F2E
100
AcDbEntity
  8
LINE
100
AcDbLine
 10
121.25
 20
75.0
 30
0.0
 11
121.25
 21
73.49999999999997
 31
0.0
  0
LINE
  5
260C
330
1F2E
100
AcDbEntity
  8
LINE
100
AcDbLine
 10
55.25
 20
83.50000000000001
 30
0.0
 11
74.25
 21
83.49999999999999
 31
0.0
  0
ARC
  5
260D
330
1F2E
100
AcDbEntity
  8
LINE
100
AcDbCircle
 10
55.25
 20
63.5
 30
0.0
 40
20.0
100
AcDbArc
 50
90.0
 51
143.130102354156
  0
LINE
  5
260E
330
1F2E
100
AcDbEntity
  8
LINE
100
AcDbLine
 10
84.74999999999999
 20
73.49999999999998
 30
0.0
 11
84.75000000000001
 21
73.5
 31
0.0
  0
LINE
  5
260F
330
1F2E
100
AcDbEntity
  8
LINE
100
AcDbLine
 10
86.25000000000001
 20
75.0
 30
0.0
 11
116.7499999999999
 21
75.0
 31
0.0
  0
LINE
  5
2610
330
1F2E
100
AcDbEntity
  8
LINE
100
AcDbLine
 10
118.25
 20
73.5
 30
0.0
 11
118.25
 21
73.49999999999997
 31
0.0
  0
ARC
  5
2611
330
1F2E
100
AcDbEntity
  8
LINE
100
AcDbCircle
 10
86.25000000000001
 20
73.5
 30
0.0
 40
1.5
100
AcDbArc
 50
90.0
 51
180.0
  0
ARC
  5
2612
330
1F2E
100
AcDbEntity
  8
LINE
100
AcDbCircle
 10
116.7499999999999
 20
73.5
 30
0.0
 40
1.5
100
AcDbArc
 50
0.0
 51
90.0
  0
ARC
  5
2613
330
1F2E
100
AcDbEntity
  8
LINE
100
AcDbCircle
 10
116.1674232583828
 20
76.64827541736876
 30
0.0
 40
3.0
100
AcDbArc
 50
37.87498365109878
 51
84.06847307507998
  0
LINE
  5
2614
330
1F2E
100
AcDbEntity
  8
LINE
100
AcDbLine
 10
60.25
 20
73.5
 30
0.0
 11
60.25
 21
73.5
 31
0.0
  0
LINE
  5
2615
330
1F2E
100
AcDbEntity
  8
LINE
100
AcDbLine
 10
60.75
 20
74.0
 30
0.0
 11
63.25
 21
74.0
 31
0.0
  0
LINE
  5
2616
330
1F2E
100
AcDbEntity
  8
LINE
100
AcDbLine
 10
63.75
 20
73.5
 30
0.0
 11
63.75
 21
73.5
 31
0.0
  0
ARC
  5
2617
330
1F2E
100
AcDbEntity
  8
LINE
100
AcDbCircle
 10
60.75
 20
73.5
 30
0.0
 40
0.5
100
AcDbArc
 50
90.0
 51
180.0
  0
ARC
  5
2618
330
1F2E
100
AcDbEntity
  8
LINE
100
AcDbCircle
 10
63.25
 20
73.5
 30
0.0
 40
0.5
100
AcDbArc
 50
0.0
 51
90.0
  0
LINE
  5
2619
330
1F2E
100
AcDbEntity
  8
LINE
100
AcDbLine
 10
39.25
 20
75.5
 30
0.0
 11
41.25
 21
73.5
 31
0.0
  0
LINE
  5
261A
330
1F2E
100
AcDbEntity
  8
LINE
100
AcDbLine
 10
39.25
 20
71.5
 30
0.0
 11
41.25
 21
73.5
 31
0.0
  0
ARC
  5
261B
330
1F2E
100
AcDbEntity
  8
LINE
100
AcDbCircle
 10
63.25
 20
73.49999999999998
 30
0.0
 40
0.5
100
AcDbArc
 50
270.0
 51
0.0
  0
ARC
  5
261C
330
1F2E
100
AcDbEntity
  8
LINE
100
AcDbCircle
 10
60.75
 20
73.49999999999998
 30
0.0
 40
0.5
100
AcDbArc
 50
180.0
 51
270.0
  0
LINE
  5
261D
330
1F2E
100
AcDbEntity
  8
LINE
100
AcDbLine
 10
63.75
 20
73.49999999999998
 30
0.0
 11
63.75
 21
73.49999999999998
 31
0.0
  0
LINE
  5
261E
330
1F2E
100
AcDbEntity
  8
LINE
100
AcDbLine
 10
60.75
 20
72.99999999999998
 30
0.0
 11
63.25
 21
72.99999999999998
 31
0.0
  0
LINE
  5
261F
330
1F2E
100
AcDbEntity
  8
LINE
100
AcDbLine
 10
60.25
 20
73.49999999999998
 30
0.0
 11
60.25
 21
73.49999999999998
 31
0.0
  0
ARC
  5
2620
330
1F2E
100
AcDbEntity
  8
LINE
100
AcDbCircle
 10
116.1674232583828
 20
70.35172458263119
 30
0.0
 40
3.0
100
AcDbArc
 50
275.9315269249198
 51
322.1250163489012
  0
ARC
  5
2621
330
1F2E
100
AcDbEntity
  8
LINE
100
AcDbCircle
 10
116.7499999999999
 20
73.49999999999996
 30
0.0
 40
1.5
100
AcDbArc
 50
270.0
 51
0.0
  0
ARC
  5
2622
330
1F2E
100
AcDbEntity
  8
LINE
100
AcDbCircle
 10
86.25000000000001
 20
73.49999999999997
 30
0.0
 40
1.5
100
AcDbArc
 50
180.0
 51
270.0
  0
LINE
  5
2623
330
1F2E
100
AcDbEntity
  8
LINE
100
AcDbLine
 10
118.25
 20
73.49999999999996
 30
0.0
 11
118.25
 21
73.49999999999998
 31
0.0
  0
LINE
  5
2624
330
1F2E
100
AcDbEntity
  8
LINE
100
AcDbLine
 10
86.25000000000001
 20
71.99999999999997
 30
0.0
 11
116.7499999999999
 21
71.99999999999993
 31
0.0
  0
LINE
  5
2625
330
1F2E
100
AcDbEntity
  8
LINE
100
AcDbLine
 10
84.74999999999999
 20
73.49999999999998
 30
0.0
 11
84.75000000000001
 21
73.49999999999997
 31
0.0
  0
ARC
  5
2626
330
1F2E
100
AcDbEntity
  8
LINE
100
AcDbCircle
 10
55.25000000000002
 20
83.49999999999999
 30
0.0
 40
20.0
100
AcDbArc
 50
216.8698976458439
 51
270.0
  0
LINE
  5
2627
330
1F2E
100
AcDbEntity
  8
LINE
100
AcDbLine
 10
55.25
 20
63.49999999999997
 30
0.0
 11
74.25
 21
63.49999999999997
 31
0.0
  0
LINE
  5
2628
330
1F2E
100
AcDbEntity
  8
LINE
100
AcDbLine
 10
121.25
 20
71.99999999999993
 30
0.0
 11
121.25
 21
73.49999999999997
 31
0.0
  0
LINE
  5
2629
330
1F2E
100
AcDbEntity
  8
LINE
100
AcDbLine
 10
118.5354799105118
 20
68.50990274208642
 30
0.0
 11
121.25
 21
71.99999999999993
 31
0.0
  0
LINE
  5
262A
330
1F2E
100
AcDbEntity
  8
LINE
100
AcDbLine
 10
79.25
 20
63.49999999999997
 30
0.0
 11
116.4774428236029
 21
67.36778626738729
 31
0.0
  0
LINE
  5
262B
330
1F2E
100
AcDbEntity
  8
LINE
100
AcDbLine
 10
74.25
 20
63.49999999999997
 30
0.0
 11
79.25
 21
63.49999999999997
 31
0.0
  0
LINE
  5
262C
330
1F2E
100
AcDbEntity
  8
LINE
100
AcDbLine
 10
41.24999999999999
 20
73.50000000000001
 30
0.0
 11
60.25
 21
73.5
 31
0.0
  0
CIRCLE
  5
262D
330
1F2E
100
AcDbEntity
  8
LINE
100
AcDbCircle
 10
74.25
 20
73.5
 30
0.0
 40
2.049999999999998
  0
ARC
  5
262E
330
1F2E
100
AcDbEntity
  8
LINE
100
AcDbCircle
 10
74.25
 20
73.5
 30
0.0
 40
10.5
100
AcDbArc
 50
107.7527901619462
 51
180.0
  0
ARC
  5
262F
330
1F2E
100
AcDbEntity
  8
LINE
100
AcDbCircle
 10
74.25
 20
73.5
 30
0.0
 40
11.0
100
AcDbArc
 50
114.6199773286568
 51
177.3954221296438
  0
ARC
  5
2630
330
1F2E
100
AcDbEntity
  8
LINE
100
AcDbCircle
 10
74.25
 20
73.5
 30
0.0
 40
11.0
100
AcDbArc
 50
294.6199773286569
 51
354.4222097073076
  0
ARC
  5
2631
330
1F2E
100
AcDbEntity
  8
LINE
100
AcDbCircle
 10
74.25
 20
73.5
 30
0.0
 40
10.5
100
AcDbArc
 50
287.7527901619462
 51
0.0
  0
CIRCLE
  5
2632
330
1F2E
100
AcDbEntity
  8
LINE
100
AcDbCircle
 10
74.25
 20
73.5
 30
0.0
 40
5.25
  0
LINE
  5
2633
330
1F2E
100
AcDbEntity
  8
LINE
100
AcDbLine
 10
15.1016488076344
 20
73.50000000000001
 30
0.0
 11
15.1016488076344
 21
83.50000000000001
 31
0.0
  0
LINE
  5
2634
330
1F2E
100
AcDbEntity
  8
LINE
100
AcDbLine
 10
15.1016488076344
 20
83.50000000000001
 30
0.0
 11
24.10164880763441
 21
83.50000000000001
 31
0.0
  0
LINE
  5
2635
330
1F2E
100
AcDbEntity
  8
LINE
100
AcDbLine
 10
24.10164880763441
 20
83.50000000000001
 30
0.0
 11
24.10164880763441
 21
73.50000000000001
 31
0.0
  0
LINE
  5
2636
330
1F2E
100
AcDbEntity
  8
LINE
100
AcDbLine
 10
23.25269917521517
 20
75.49999999999998
 30
0.0
 11
24.10164880763441
 21
75.50000000000001
 31
0.0
  0
LINE
  5
2637
330
1F2E
100
AcDbEntity
  8
LINE
100
AcDbLine
 10
23.88941139952957
 20
74.00000000000003
 30
0.0
 11
15.1016488076344
 21
74.00000000000002
 31
0.0
  0
LINE
  5
2638
330
1F2E
100
AcDbEntity
  8
LINE
100
AcDbLine
 10
19.60164880763439
 20
73.50000000000001
 30
0.0
 11
19.60164880763439
 21
74.00000000000002
 31
0.0
  0
LINE
  5
2639
330
1F2E
100
AcDbEntity
  8
LINE
100
AcDbLine
 10
19.60164880763439
 20
73.50000000000001
 30
0.0
 11
19.60164880763439
 21
73.00000000000001
 31
0.0
  0
LINE
  5
263A
330
1F2E
100
AcDbEntity
  8
LINE
100
AcDbLine
 10
23.88941139952961
 20
73.00000000000001
 30
0.0
 11
15.1016488076344
 21
73.00000000000001
 31
0.0
  0
LINE
  5
263B
330
1F2E
100
AcDbEntity
  8
LINE
100
AcDbLine
 10
23.25269917521517
 20
71.49999999999998
 30
0.0
 11
24.10164880763441
 21
71.50000000000002
 31
0.0
  0
LINE
  5
263C
330
1F2E
100
AcDbEntity
  8
LINE
100
AcDbLine
 10
24.10164880763441
 20
63.50000000000001
 30
0.0
 11
24.10164880763441
 21
73.50000000000001
 31
0.0
  0
LINE
  5
263D
330
1F2E
100
AcDbEntity
  8
LINE
100
AcDbLine
 10
15.1016488076344
 20
63.50000000000001
 30
0.0
 11
24.10164880763441
 21
63.50000000000001
 31
0.0
  0
LINE
  5
263E
330
1F2E
100
AcDbEntity
  8
LINE
100
AcDbLine
 10
15.1016488076344
 20
73.50000000000001
 30
0.0
 11
15.1016488076344
 21
63.50000000000001
 31
0.0
  0
DIMENSION
  5
263F
330
1F2E
100
AcDbEntity
  8
DIMENSION
100
AcDbDimension
  2
*D21
 10
60.25
 20
87.2123566815039
 30
0.0
 11
49.75
 21
89.0873566815039
 31
0.0
 70
    32
  3
ISO-25
100
AcDbAlignedDimension
 13
39.25
 23
75.5
 33
0.0
 14
60.25
 24
73.49999999999998
 34
0.0
100
AcDbRotatedDimension
1001
ACAD
1000
DSTYLE
1002
{
1070
   287
1070
     3
1070
   287
1070
     3
1070
   279
1070
     0
1070
    75
1070
     1
1002
}
  0
DIMENSION
  5
2640
330
1F2E
100
AcDbEntity
  8
DIMENSION
100
AcDbDimension
  2
*D22
 10
74.25
 20
87.2123566815039
 30
0.0
 11
67.25
 21
89.0873566815039
 31
0.0
 70
    32
  3
ISO-25
100
AcDbAlignedDimension
 13
60.25
 23
73.5
 33
0.0
 14
74.25
 24
84.09247405217694
 34
0.0
100
AcDbRotatedDimension
1001
ACAD
1000
DSTYLE
1002
{
1070
   287
1070
     3
1070
   287
1070
     3
1070
   279
1070
     0
1070
    76
1070
     1
1002
}
  0
DIMENSION
  5
2641
330
1F2E
100
AcDbEntity
  8
DIMENSION
100
AcDbDimension
  2
*D3
 10
35.25
 20
71.50000000000002
 30
0.0
 11
33.99999999999999
 21
73.50000000000003
 31
0.0
  3
ISO-25
100
AcDbAlignedDimension
 13
39.25
 23
75.5
 33
0.0
 14
39.25
 24
71.50000000000002
 34
0.0
 50
90.0
100
AcDbRotatedDimension
  0
LINE
  5
2642
330
1F2E
100
AcDbEntity
  8
DIMENSION
 62
     3
100
AcDbLine
 10
39.25
 20
75.5
 30
0.0
 11
32.76320034123977
 21
81.98679965876022
 31
0.0
  0
LINE
  5
2643
330
1F2E
100
AcDbEntity
  8
DIMENSION
 62
     3
100
AcDbLine
 10
39.25
 20
71.5
 30
0.0
 11
32.76320034123973
 21
65.01320034123978
 31
0.0
  0
ARC
  5
2644
330
1F2E
100
AcDbEntity
  8
DIMENSION
 62
     3
100
AcDbCircle
 10
41.25
 20
73.5
 30
0.0
 40
10.50214717856207
100
AcDbArc
 50
140.4576883685163
 51
219.5423116314837
  0
INSERT
  5
2645
330
1F2E
100
AcDbEntity
  8
DIMENSION
 62
     3
100
AcDbBlockReference
  2
_OPEN30
 10
33.82386051301959
 20
80.92613948698041
 30
0.0
 50
47.72884418425839
  0
INSERT
  5
2646
330
1F2E
100
AcDbEntity
  8
DIMENSION
 62
     3
100
AcDbBlockReference
  2
_OPEN30
 10
33.82386051301959
 20
66.07386051301959
 30
0.0
 50
312.2711558157416
  0
INSERT
  5
2647
330
1F2E
100
AcDbEntity
  8
0
100
AcDbBlockReference
  2
*U19
 10
0.0
 20
0.0
 30
0.0
  0
TEXT
  5
2648
330
1F2E
100
AcDbEntity
  8
TEXT
100
AcDbText
 10
69.3440392857321
 20
68.55908302223482
 30
0.0
 40
2.0
  1
Ｖ
 50
127.5000000000002
  7
GOTHIC
 72
     1
 11
67.9825086116994
 21
68.69078471083124
 31
0.0
100
AcDbText
 73
     2
  0
TEXT
  5
2649
330
1F2E
100
AcDbEntity
  8
TEXT
100
AcDbText
 10
68.23240242921305
 20
69.99719675300378
 30
0.0
 40
2.0
  1
Ｅ
 50
112.4999999999995
  7
GOTHIC
 72
     1
 11
66.95135169316102
 21
70.47680088431589
 31
0.0
100
AcDbText
 73
     2
  0
TEXT
  5
264A
330
1F2E
100
AcDbEntity
  8
TEXT
100
AcDbText
 10
67.53085490259299
 20
71.67402073639944
 30
0.0
 40
2.0
  1
Ｓ
 50
97.49999999999971
  7
GOTHIC
 72
     1
 11
66.41758559514714
 21
72.46884308146161
 31
0.0
100
AcDbText
 73
     2
  0
TEXT
  5
264B
330
1F2E
100
AcDbEntity
  8
TEXT
100
AcDbText
 10
67.28720601044885
 20
73.47528218903618
 30
0.0
 40
2.0
  1
Ｓ
 50
82.5000000000003
  7
GOTHIC
 72
     1
 11
66.41758559514709
 21
74.53115691853844
 31
0.0
100
AcDbText
 73
     2
  0
TEXT
  5
264C
330
1F2E
100
AcDbEntity
  8
TEXT
100
AcDbText
 10
67.51806002213159
 20
75.27822811964187
 30
0.0
 40
2.0
  1
Ｅ
 50
67.50000000000042
  7
GOTHIC
 72
     1
 11
66.95135169316104
 21
76.52319911568415
 31
0.0
100
AcDbText
 73
     2
  0
TEXT
  5
264D
330
1F2E
100
AcDbEntity
  8
TEXT
100
AcDbText
 10
68.20768461824916
 20
76.95999074255492
 30
0.0
 40
2.0
  1
Ｌ
 50
52.49999999999982
  7
GOTHIC
 72
     1
 11
67.9825086116994
 21
78.30921528916879
 31
0.0
100
AcDbText
 73
     2
  0
INSERT
  5
264E
330
1F2E
100
AcDbEntity
  8
DIMENSION
100
AcDbBlockReference
  2
_OPEN30
 10
46.15673344352098
 20
65.68673237912761
 30
0.0
 50
61.7181381643939
1001
ACAD
1000
DSTYLE
1002
{
1070
   147
1040
0.5
1070
    77
1070
     1
1002
}
  0
POLYLINE
  5
264F
330
1F2E
100
AcDbEntity
  8
DIMENSION
100
AcDb2dPolyline
 66
     1
 10
0.0
 20
0.0
 30
0.0
1001
ACAD
1000
DSTYLE
1002
{
1070
   147
1040
0.5
1070
    77
1070
     1
1002
}
  0
VERTEX
  5
2650
330
264F
100
AcDbEntity
  8
DIMENSION
100
AcDbVertex
100
AcDb2dVertex
 10
45.68292399154746
 20
64.80610498730941
 30
0.0
  0
VERTEX
  5
2651
330
264F
100
AcDbEntity
  8
DIMENSION
100
AcDbVertex
100
AcDb2dVertex
 10
43.86126747912167
 20
61.42035441470195
 30
0.0
  0
VERTEX
  5
2652
330
264F
100
AcDbEntity
  8
DIMENSION
100
AcDbVertex
100
AcDb2dVertex
 10
38.9348715400354
 20
61.42035441470195
 30
0.0
  0
SEQEND
  5
2653
330
264F
100
AcDbEntity
  8
DIMENSION
  0
TEXT
  5
2654
330
1F2E
100
AcDbEntity
  8
DIMENSION
100
AcDbText
 10
39.79913626347753
 20
62.0033491012666
 30
0.0
 40
1.5
  1
R20
  7
GOTHIC
 11
39.79913626347753
 21
62.75334910126659
 31
0.0
100
AcDbText
 73
     2
  0
DIMENSION
  5
2655
330
1F2E
100
AcDbEntity
  8
DIMENSION
100
AcDbDimension
  2
*D5
 10
9.101648807634402
 20
63.50000000000001
 30
0.0
 11
7.851648807634393
 21
73.50000000000001
 31
0.0
  3
ISO-25
100
AcDbAlignedDimension
 13
15.1016488076344
 23
83.50000000000001
 33
0.0
 14
15.1016488076344
 24
63.50000000000001
 34
0.0
 50
90.0
100
AcDbRotatedDimension
  0
LINE
  5
2656
330
1F2E
100
AcDbEntity
  8
LINE
100
AcDbLine
 10
116.25
 20
67.34415584415582
 30
0.0
 11
119.25
 21
69.4285714285713
 31
0.0
  0
LINE
  5
2657
330
1F2E
100
AcDbEntity
  8
LINE
100
AcDbLine
 10
116.25
 20
79.65584415584425
 30
0.0
 11
119.25
 21
77.57142857142868
 31
0.0
  0
LINE
  5
2658
330
1F2E
100
AcDbEntity
  8
CENTER
100
AcDbLine
 10
121.25
 20
73.49999999999997
 30
0.0
 11
122.2147189760546
 21
73.49999999999997
 31
0.0
  0
LINE
  5
2659
330
1F2E
100
AcDbEntity
  8
LINE
100
AcDbLine
 10
118.25
 20
73.5
 30
0.0
 11
121.25
 21
73.49999999999997
 31
0.0
  0
DIMENSION
  5
265A
330
1F2E
100
AcDbEntity
  8
DIMENSION
100
AcDbDimension
  2
*D7
 10
74.25
 20
91.71235668150393
 30
0.0
 11
56.75
 21
92.96235668150393
 31
0.0
  3
ISO-25
100
AcDbAlignedDimension
 13
39.25
 23
75.5
 33
0.0
 14
74.25
 24
84.09247405217694
 34
0.0
100
AcDbRotatedDimension
1001
ACAD
1000
DSTYLE
1002
{
1070
    75
1070
     0
1002
}
  0
LINE
  5
265B
330
1F2E
100
AcDbEntity
  8
LINE
100
AcDbLine
 10
20.1016488076344
 20
64.07659053670498
 30
0.0
 11
20.1016488076344
 21
63.50000000000001
 31
0.0
  0
LINE
  5
265C
330
1F2E
100
AcDbEntity
  8
LINE
100
AcDbLine
 10
20.1016488076344
 20
82.92340946329503
 30
0.0
 11
24.10164880763441
 21
73.50000000000001
 31
0.0
  0
LINE
  5
265D
330
1F2E
100
AcDbEntity
  8
LINE
100
AcDbLine
 10
20.1016488076344
 20
64.07659053670498
 30
0.0
 11
24.10164880763441
 21
73.50000000000001
 31
0.0
  0
LINE
  5
265E
330
1F2E
100
AcDbEntity
  8
LINE
100
AcDbLine
 10
20.1016488076344
 20
82.92340946329503
 30
0.0
 11
20.1016488076344
 21
83.50000000000001
 31
0.0
  0
DIMENSION
  5
265F
330
1F2E
100
AcDbEntity
  8
DIMENSION
100
AcDbDimension
  2
*D9
 10
24.10164880763441
 20
58.7123566815039
 30
0.0
 11
22.10164880763439
 21
59.9623566815039
 31
0.0
  3
ISO-25
100
AcDbAlignedDimension
 13
20.1016488076344
 23
63.50000000000001
 33
0.0
 14
24.10164880763441
 24
63.50000000000001
 34
0.0
100
AcDbRotatedDimension
  0
LINE
  5
2660
330
1F2E
100
AcDbEntity
  8
DIMENSION
 62
     3
100
AcDbLine
 10
24.10164880763441
 20
83.49999999999999
 30
0.0
 11
24.10164880763439
 21
93.27402352779264
 31
0.0
  0
LINE
  5
2661
330
1F2E
100
AcDbEntity
  8
DIMENSION
 62
     3
100
AcDbLine
 10
20.1016488076344
 20
82.92340946329501
 30
0.0
 11
16.37532227984656
 21
91.70208462961587
 31
0.0
  0
ARC
  5
2662
330
1F2E
100
AcDbEntity
  8
DIMENSION
 62
     3
100
AcDbCircle
 10
24.10164880763441
 20
73.5
 30
0.0
 40
18.27402352779262
100
AcDbArc
 50
93.13575884359002
 51
109.8642411564093
  0
INSERT
  5
2663
330
1F2E
100
AcDbEntity
  8
DIMENSION
 62
     3
100
AcDbBlockReference
  2
_OPEN30
 10
24.10164880763441
 20
91.77402352779266
 30
0.0
 50
1.567879421794819
  0
INSERT
  5
2664
330
1F2E
100
AcDbEntity
  8
DIMENSION
 62
     3
100
AcDbBlockReference
  2
_OPEN30
 10
16.96141897258046
 20
90.32132734943724
 30
0.0
 50
201.4321205782048
  0
INSERT
  5
2665
330
1F2E
100
AcDbEntity
  8
0
100
AcDbBlockReference
  2
*U20
 10
0.0
 20
0.0
 30
0.0
  0
TEXT
  5
2666
330
1F2E
100
AcDbEntity
  8
TEXT
100
AcDbText
 10
81.20321668166285
 20
79.13328402344909
 30
0.0
 40
2.0
  1
Ｔ
 50
135.0
  7
GOTHIC
 72
     1
 11
79.83614357136885
 21
79.08614357136999
 31
0.0
100
AcDbText
 73
     2
  0
TEXT
  5
2667
330
1F2E
100
AcDbEntity
  8
TEXT
100
AcDbText
 10
82.31351184574227
 20
77.07775023226473
 30
0.0
 40
2.0
  1
Ｊ
 50
120.0000000000001
  7
GOTHIC
 72
     1
 11
80.98081977529117
 21
77.3860406091302
 31
0.0
100
AcDbText
 73
     2
  0
TEXT
  5
2668
330
1F2E
100
AcDbEntity
  8
TEXT
100
AcDbText
 10
82.96474424112169
 20
74.86885091326709
 30
0.0
 40
2.0
  1
Ａ
 50
104.9999999999996
  7
GOTHIC
 72
     1
 11
81.75725397273694
 21
75.51156263936771
 31
0.0
100
AcDbText
 73
     2
  0
TEXT
  5
2669
330
1F2E
100
AcDbEntity
  8
TEXT
100
AcDbText
 10
83.14390862943206
 20
72.56666666666285
 30
0.0
 40
2.0
  1
０
 50
90.0
  7
GOTHIC
 72
     1
 11
82.14390862943206
 21
73.49999999999619
 31
0.0
100
AcDbText
 73
     2
  0
TEXT
  5
266A
330
1F2E
100
AcDbEntity
  8
TEXT
100
AcDbText
 10
82.59929159972893
 20
70.29655629009271
 30
0.0
 40
2.0
  1
１
 50
75.00000000000042
  7
GOTHIC
 72
     1
 11
81.87493021553555
 21
71.45690610639835
 31
0.0
100
AcDbText
 73
     2
  0
TEXT
  5
266B
330
1F2E
100
AcDbEntity
  8
TEXT
100
AcDbText
 10
81.3801785124123
 20
68.30566901399468
 30
0.0
 40
2.0
  1
Ｔ
 50
59.99999999999985
  7
GOTHIC
 72
     1
 11
80.98081977529453
 21
69.61395939086016
 31
0.0
100
AcDbText
 73
     2
  0
TEXT
  5
266C
330
1F2E
100
AcDbEntity
  8
TEXT
100
AcDbText
 10
79.82154678163836
 20
66.60852056013799
 30
0.0
 40
2.0
  1
Ｎ
 50
45.0
  7
GOTHIC
 72
     1
 11
79.77440632955925
 21
67.97559367043199
 31
0.0
100
AcDbText
 73
     2
  0
LINE
  5
266D
330
1F2E
100
AcDbEntity
  8
CENTER
100
AcDbLine
 10
59.14601672160106
 20
43.5
 30
0.0
 11
69.66742430504421
 21
43.5
 31
0.0
  0
LINE
  5
266E
330
1F2E
100
AcDbEntity
  8
CENTER
100
AcDbLine
 10
74.25
 20
48.75
 30
0.0
 11
74.25
 21
38.25
 31
0.0
  0
LINE
  5
266F
330
1F2E
100
AcDbEntity
  8
LINE
100
AcDbLine
 10
121.25
 20
43.5
 30
0.0
 11
121.25
 21
47.24999999999996
 31
0.0
  0
LINE
  5
2670
330
1F2E
100
AcDbEntity
  8
LINE
100
AcDbLine
 10
119.4646428928642
 20
48.0
 30
0.0
 11
74.25
 21
48.0
 31
0.0
  0
LINE
  5
2671
330
1F2E
100
AcDbEntity
  8
LINE
100
AcDbLine
 10
74.25
 20
48.0
 30
0.0
 11
39.25
 21
48.0
 31
0.0
  0
LINE
  5
2672
330
1F2E
100
AcDbEntity
  8
LINE
100
AcDbLine
 10
39.25
 20
48.0
 30
0.0
 11
39.25
 21
47.15099999999998
 31
0.0
  0
LINE
  5
2673
330
1F2E
100
AcDbEntity
  8
LINE
100
AcDbLine
 10
119.4646428928642
 20
39.0
 30
0.0
 11
74.25
 21
39.0
 31
0.0
  0
LINE
  5
2674
330
1F2E
100
AcDbEntity
  8
LINE
100
AcDbLine
 10
74.25
 20
39.0
 30
0.0
 11
61.25
 21
39.0
 31
0.0
  0
LINE
  5
2675
330
1F2E
100
AcDbEntity
  8
LINE
100
AcDbLine
 10
61.25
 20
39.0
 30
0.0
 11
61.25
 21
42.0
 31
0.0
  0
LINE
  5
2676
330
1F2E
100
AcDbEntity
  8
LINE
100
AcDbLine
 10
59.25
 20
44.0
 30
0.0
 11
50.02549066168217
 21
44.0
 31
0.0
  0
ARC
  5
2677
330
1F2E
100
AcDbEntity
  8
LINE
100
AcDbCircle
 10
119.4646428928642
 20
45.49999999999999
 30
0.0
 40
2.5
100
AcDbArc
 50
44.42700400080545
 51
90.0
  0
LINE
  5
2678
330
1F2E
100
AcDbEntity
  8
LINE
100
AcDbLine
 10
117.7499999999999
 20
47.25
 30
0.0
 11
119.25
 21
48.0
 31
0.0
  0
LINE
  5
2679
330
1F2E
100
AcDbEntity
  8
LINE
100
AcDbLine
 10
117.7499999999999
 20
47.25
 30
0.0
 11
116.25
 21
48.0
 31
0.0
  0
LINE
  5
267A
330
1F2E
100
AcDbEntity
  8
LINE
100
AcDbLine
 10
117.7499999999999
 20
39.75
 30
0.0
 11
116.25
 21
39.0
 31
0.0
  0
LINE
  5
267B
330
1F2E
100
AcDbEntity
  8
LINE
100
AcDbLine
 10
117.7499999999999
 20
39.75
 30
0.0
 11
119.25
 21
39.0
 31
0.0
  0
ARC
  5
267C
330
1F2E
100
AcDbEntity
  8
LINE
100
AcDbCircle
 10
119.4646428928642
 20
41.5
 30
0.0
 40
2.5
100
AcDbArc
 50
270.0
 51
315.5729959991943
  0
LINE
  5
267D
330
1F2E
100
AcDbEntity
  8
LINE
100
AcDbLine
 10
121.25
 20
43.5
 30
0.0
 11
121.25
 21
39.75000000000001
 31
0.0
  0
ARC
  5
267E
330
1F2E
100
AcDbEntity
  8
LINE
100
AcDbCircle
 10
59.25
 20
42.0
 30
0.0
 40
2.0
100
AcDbArc
 50
0.0
 51
90.0
  0
LINE
  5
267F
330
1F2E
100
AcDbEntity
  8
LINE
100
AcDbLine
 10
69.66742430504421
 20
43.5
 30
0.0
 11
69.66742430504421
 21
39.0
 31
0.0
  0
LINE
  5
2680
330
1F2E
100
AcDbEntity
  8
LINE
100
AcDbLine
 10
71.04843788128366
 20
43.5
 30
0.0
 11
71.04843788128366
 21
39.0
 31
0.0
  0
LINE
  5
2681
330
1F2E
100
AcDbEntity
  8
LINE
100
AcDbLine
 10
77.45156211871637
 20
48.0
 30
0.0
 11
77.45156211871637
 21
43.5
 31
0.0
  0
LINE
  5
2682
330
1F2E
100
AcDbEntity
  8
LINE
100
AcDbLine
 10
78.83257569495579
 20
48.0
 30
0.0
 11
78.83257569495579
 21
43.5
 31
0.0
  0
LINE
  5
2683
330
1F2E
100
AcDbEntity
  8
LINE
100
AcDbLine
 10
69.66742430504421
 20
43.5
 30
0.0
 11
78.83257569495579
 21
43.5
 31
0.0
  0
LINE
  5
2684
330
1F2E
100
AcDbEntity
  8
CENTER
100
AcDbLine
 10
78.83257569495579
 20
43.5
 30
0.0
 11
123.737550169881
 21
43.5
 31
0.0
  0
DIMENSION
  5
2685
330
1F2E
100
AcDbEntity
  8
DIMENSION
100
AcDbDimension
  2
*D11
 10
129.75
 20
39.0
 30
0.0
 11
127.8591370558374
 21
43.50000000000002
 31
0.0
  3
ISO-25
100
AcDbAlignedDimension
 13
119.4646428928642
 23
48.0
 33
0.0
 14
119.4646428928642
 24
39.0
 34
0.0
 50
90.0
100
AcDbRotatedDimension
1001
ACAD
1000
DSTYLE
1002
{
1070
   146
1040
0.8
1070
    47
1040
0.0
1070
    48
1040
0.1
1070
   147
1040
0.5
1070
    72
1070
     0
1070
    71
1070
     1
1002
}
  0
ARC
  5
2686
330
1F2E
100
AcDbEntity
  8
LINE
100
AcDbCircle
 10
50.02549066168217
 20
64.0
 30
0.0
 40
20.0
100
AcDbArc
 50
237.39974509027
 51
270.0
  0
DIMENSION
  5
2687
330
1F2E
100
AcDbEntity
  8
DIMENSION
100
AcDbDimension
  2
*D13
 10
74.25
 20
35.25
 30
0.0
 11
67.75
 21
36.5
 31
0.0
  3
ISO-25
100
AcDbAlignedDimension
 13
61.25
 23
39.0
 33
0.0
 14
74.25
 24
38.25
 34
0.0
100
AcDbRotatedDimension
  0
DIMENSION
  5
2688
330
1F2E
100
AcDbEntity
  8
DIMENSION
100
AcDbDimension
  2
*D15
 10
35.24999999999999
 20
44.00000000000001
 30
0.0
 11
33.99999999999998
 21
46.0
 31
0.0
  3
ISO-25
100
AcDbAlignedDimension
 13
39.25
 23
48.0
 33
0.0
 14
50.02549066168217
 24
44.0
 34
0.0
 50
90.0
100
AcDbRotatedDimension
  0
INSERT
  5
2689
330
1F2E
100
AcDbEntity
  8
DIMENSION
100
AcDbBlockReference
  2
_OPEN30
 10
60.75632424819751
 20
43.31566988993903
 30
0.0
 50
45.48079437373939
1001
ACAD
1000
DSTYLE
1002
{
1070
   147
1040
0.5
1070
    77
1070
     1
1002
}
  0
POLYLINE
  5
268A
330
1F2E
100
AcDbEntity
  8
DIMENSION
100
AcDb2dPolyline
 66
     1
 10
0.0
 20
0.0
 30
0.0
1001
ACAD
1000
DSTYLE
1002
{
1070
   147
1040
0.5
1070
    77
1070
     1
1002
}
  0
VERTEX
  5
268B
330
268A
100
AcDbEntity
  8
DIMENSION
100
AcDbVertex
100
AcDb2dVertex
 10
60.05517594072073
 20
42.60265442662674
 30
0.0
  0
VERTEX
  5
268C
330
268A
100
AcDbEntity
  8
DIMENSION
100
AcDbVertex
100
AcDb2dVertex
 10
57.24999999999997
 20
39.75
 30
0.0
  0
VERTEX
  5
268D
330
268A
100
AcDbEntity
  8
DIMENSION
100
AcDbVertex
100
AcDb2dVertex
 10
53.5334121647357
 20
39.75
 30
0.0
  0
SEQEND
  5
268E
330
268A
100
AcDbEntity
  8
DIMENSION
  0
TEXT
  5
268F
330
1F2E
100
AcDbEntity
  8
DIMENSION
100
AcDbText
 10
54.10556117993905
 20
40.16489368911459
 30
0.0
 40
1.5
  1
R2
  7
GOTHIC
 11
54.10556117993905
 21
40.91489368911459
 31
0.0
100
AcDbText
 73
     2
  0
DIMENSION
  5
2690
330
1F2E
100
AcDbEntity
  8
DIMENSION
100
AcDbDimension
  2
*D17
 10
75.04760359851029
 20
75.38847253081519
 30
0.0
 11
66.0
 21
60.00000000000002
 31
0.0
 70
   131
  3
ISO-25
100
AcDbDiametricDimension
 15
73.45239640148971
 25
71.61152746918488
 35
0.0
 40
0.0
1001
ACAD
1000
DSTYLE
1002
{
1070
     3
1000
φ<>
1070
   288
1070
     1
1002
}
  0
VIEWPORT
  5
2693
330
1F2A
100
AcDbEntity
 67
     1
  8
0
100
AcDbViewport
 10
145.3197631835936
 20
101.8222458362579
 30
0.0
 40
391.2734030671862
 41
222.174172088623
 68
     1
 69
     1
1001
ACAD
1000
MVIEW
1002
{
1070
    16
1010
0.0
1020
0.0
1030
0.0
1010
0.0
1020
0.0
1030
1.0
1040
0.0
1040
222.174172088623
1040
145.3197631835936
1040
101.8222458362579
1040
50.0
1040
0.0
1040
0.0
1070
     0
1070
  1000
1070
     1
1070
     1
1070
     0
1070
     0
1070
     0
1070
     0
1040
0.0
1040
0.0
1040
0.0
1040
10.0
1040
10.0
1040
10.0
1040
10.0
1070
     0
1002
{
1002
}
1002
}
  0
ENDSEC
  0
SECTION
  2
OBJECTS
  0
DICTIONARY
  5
1F1C
330
0
100
AcDbDictionary
  3
ACAD_GROUP
350
1F1D
  3
ACAD_LAYOUT
350
1F29
  3
ACAD_MLINESTYLE
350
1F26
  3
ACAD_PLOTSETTINGS
350
1F28
1001
ACAD
1000
TREAT_AS_HARD
1070
     0
1000
TREAT_AS_HARD
1070
     0
  0
DICTIONARY
  5
269A
330
1F2E
100
AcDbDictionary
  3
ACAD_LAYOUTSELFREF
350
26BF
1001
ACAD
1000
TREAT_AS_HARD
1070
     0
  0
DICTIONARY
  5
2698
330
1F2A
100
AcDbDictionary
  3
ACAD_LAYOUTSELFREF
350
26BE
1001
ACAD
1000
TREAT_AS_HARD
1070
     0
  0
DICTIONARY
  5
1F1D
102
{ACAD_REACTORS
330
1F1C
102
}
330
1F1C
100
AcDbDictionary
1001
ACAD
1000
TREAT_AS_HARD
1070
     0
1000
TREAT_AS_HARD
1070
     0
  0
DICTIONARY
  5
1F29
102
{ACAD_REACTORS
330
1F1C
102
}
330
1F1C
100
AcDbDictionary
1001
ACAD
1000
TREAT_AS_HARD
1070
     0
1000
TREAT_AS_HARD
1070
     0
  0
DICTIONARY
  5
1F26
102
{ACAD_REACTORS
330
1F1C
102
}
330
1F1C
100
AcDbDictionary
  3
STANDARD
350
1F27
1001
ACAD
1000
TREAT_AS_HARD
1070
     0
1000
TREAT_AS_HARD
1070
     0
  0
DICTIONARY
  5
1F28
102
{ACAD_REACTORS
330
1F1C
102
}
330
1F1C
100
AcDbDictionary
1001
ACAD
1000
TREAT_AS_HARD
1070
     0
1000
TREAT_AS_HARD
1070
     0
  0
XRECORD
  5
26BF
102
{ACAD_REACTORS
330
269A
102
}
330
269A
100
AcDbXrecord
340
1F2E
  0
XRECORD
  5
26BE
102
{ACAD_REACTORS
330
2698
102
}
330
2698
100
AcDbXrecord
340
1F2A
  0
MLINESTYLE
  5
1F27
102
{ACAD_REACTORS
330
1F26
102
}
330
1F26
100
AcDbMlineStyle
  2
STANDARD
 70
     0
  3

 62
   256
 51
90.0
 52
90.0
 71
     2
 49
0.5
 62
   256
  6
BYLAYER
 49
-0.5
 62
   256
  6
BYLAYER
  0
ENDSEC
  0
EOF
